[MINI Super-HQ] The Lunchbox (2013) เมนูต้องมนต์รัก [1080p] [พากย์ไทย 5.1 + เสียงอินเดีย DTS] [บรรยายไทย + อังกฤษ] [เสียงไทย + ซับไทย] [PANDAFILE]

4

โหลดหนัง The Lunchbox (2013) เมนูต้องมนต์รัก

The Lunchbox | September 20, 2013 (India) Summary: A mistaken delivery in Mumbai's famously efficient lunchbox delivery system connects a young housewife to an older man in the dusk of his life as they build a fantasy world together through ... Read all
Countries: India, France, Germany, United States, CanadaLanguages: Hindi

เรื่องย่อ The Lunchbox (2013) เมนูต้องมนต์รัก

The Luchbox คือเรื่องราว มิตรภาพอันน่าอัศจรรย์ระหว่าง เฟอร์นานเดส นักบัญชีที่ใช้ชีวิตอย่างเดียวดายและไม่ใส่ใจใคร หลังจากที่ภรรยาของเขาเสียชีวิต วันหนึ่งเขาก็ต้องพบกับความประหลาดใจเมื่อได้รับปิ่น โตที่บรรจุอาหารกลางวัน เลิศรส เจ้าของปิ่นโตนั้นคือคือ อิลา หญิงสาวผู้ถูกสามีหมางเมินและพยายามที่จะเรียกร้องความสนใจด้วยการทำอาหารใส่ปิ่นโต เพื่อเอาใจสามี แต่กลายเป็นว่าข้าวกลางวันถูกส่งไปให้ชายหนุ่มผิดคน อิลา ทำอาหารให้เฟอร์นานเดสอีกครั้งในวันต่อมา เพื่อขอบคุณที่คืนปิ่นโตให้ และเขียนจดหมายถึงเขาจากนั้นทั้งคู่ก็แลกเปลี่ยนจดหมายถึงกันผ่านปิ่นโตอาหาร นำมาซึ่งเรื่องราวสุดโรแมนติก เสน่ห์อย่างหนึ่งของหนังเรื่องนี้ที่ได้รับการพูดถึง อย่างมากก็คือสามารถทำให้คุณดูยิ้ม และซึ้งไปกับเรื่องราวอันแสนอบอุ่นของคนทั้งคู่ และคอยลุ้นเอาใจช่วยอยู่ตลอดเวลาว่าพวกเขาจะได้เจอกันตอนไหน!!!

Complete name : [MINI Super-HQ]_The.Lunchbox.2013.1080p.BrRip.x264.DTS.One2loadup.com.mkv
Format : Matroska
Format version : Version 4
File size : 3.91 GiB
Duration : 1 h 40 min
Overall bit rate : 5 553 kb/s
Movie name : [MINI Super-HQ]_The.Lunchbox.2013.1080p.BrRip.x264.DTS.One2loadup.com
Encoded date : UTC 2010-02-22 21:41:31
Writing application : mkvmerge v5.9.0 (‘On The Loose’) built on Dec 9 2012 15:37:01
Writing library : libebml v1.3.0 + libmatroska v1.4.0

Video
ID : 1
Format : AVC
Format/Info : Advanced Video Codec
Format profile : [email protected]
Format settings : CABAC / 4 Ref Frames
Format settings, CABAC : Yes
Format settings, ReFrames : 4 frames
Codec ID : V_MPEG4/ISO/AVC
Duration : 1 h 40 min
Bit rate : 4 222 kb/s
Width : 1 920 pixels
Height : 816 pixels
Display aspect ratio : 2.35:1
Frame rate mode : Constant
Frame rate : 25.000 FPS
Color space : YUV
Chroma subsampling : 4:2:0
Bit depth : 8 bits
Scan type : Progressive
Bits/(Pixel*Frame) : 0.108
Stream size : 2.98 GiB (76%)
Title : [MINI Super-HQ]_The.Lunchbox.2013.1080p.BrRip.x264.DTS.One2loadup.com
Writing library : x264 core 130 r2273 b3065e6
Encoding settings : cabac=1 / ref=4 / deblock=1:0:0 / analyse=0x3:0x113 / me=umh / subme=11 / psy=1 / psy_rd=1.00:0.00 / mixed_ref=1 / me_range=24 / chroma_me=1 / trellis=2 / 8x8dct=1 / cqm=0 / deadzone=21,11 / fast_pskip=1 / chroma_qp_offset=-2 / threads=12 / lookahead_threads=1 / sliced_threads=0 / nr=0 / decimate=1 / interlaced=0 / bluray_compat=0 / constrained_intra=0 / bframes=4 / b_pyramid=2 / b_adapt=2 / b_bias=0 / direct=1 / weightb=1 / open_gop=0 / weightp=2 / keyint=250 / keyint_min=25 / scenecut=40 / intra_refresh=0 / rc_lookahead=40 / rc=2pass / mbtree=1 / bitrate=4222 / ratetol=1.0 / qcomp=0.60 / qpmin=0 / qpmax=69 / qpstep=4 / cplxblur=20.0 / qblur=0.5 / ip_ratio=1.40 / aq=1:1.00
Language : English
Default : Yes
Forced : No
Color range : Limited
Color primaries : BT.709
Transfer characteristics : BT.709
Matrix coefficients : BT.709

Audio #1
ID : 2
Format : AC-3
Format/Info : Audio Coding 3
Commercial name : Dolby Digital
Codec ID : A_AC3
Duration : 1 h 40 min
Bit rate mode : Constant
Bit rate : 448 kb/s
Channel(s) : 6 channels
Channel layout : L R C LFE Ls Rs
Sampling rate : 48.0 kHz
Frame rate : 31.250 FPS (1536 SPF)
Bit depth : 16 bits
Compression mode : Lossy
Stream size : 323 MiB (8%)
Title : Thai DVD Master
Language : Thai
Service kind : Complete Main
Default : Yes
Forced : Yes

Audio #2
ID : 3
Format : DTS
Format/Info : Digital Theater Systems
Codec ID : A_DTS
Duration : 1 h 40 min
Bit rate mode : Constant
Bit rate : 755 kb/s
Channel(s) : 6 channels
Channel layout : C L R Ls Rs LFE
Sampling rate : 48.0 kHz
Frame rate : 93.750 FPS (512 SPF)
Bit depth : 24 bits
Compression mode : Lossy
Stream size : 544 MiB (14%)
Title : Hindi DTS
Language : Hindi
Default : No
Forced : No

Text #1
ID : 4
Format : VobSub
Codec ID : S_VOBSUB
Codec ID/Info : Picture based subtitle format used on DVDs
Title : Thai 480p DVD Master
Language : Thai
Default : No
Forced : No

Text #2
ID : 5
Format : VobSub
Codec ID : S_VOBSUB
Codec ID/Info : Picture based subtitle format used on DVDs
Title : Thai 720p
Language : Thai
Default : No
Forced : No

Text #3
ID : 6
Format : VobSub
Codec ID : S_VOBSUB
Codec ID/Info : Picture based subtitle format used on DVDs
Title : Thai 1080p
Language : Thai
Default : Yes
Forced : Yes

Text #4
ID : 7
Format : VobSub
Codec ID : S_VOBSUB
Codec ID/Info : Picture based subtitle format used on DVDs
Title : Thai 1080p Yellow
Language : Thai
Default : No
Forced : No

Text #5
ID : 8
Format : VobSub
Codec ID : S_VOBSUB
Codec ID/Info : Picture based subtitle format used on DVDs
Title : Thai 1080p Out
Language : Thai
Default : No
Forced : No

Text #6
ID : 9
Format : VobSub
Codec ID : S_VOBSUB
Codec ID/Info : Picture based subtitle format used on DVDs
Title : Thai 1080p BIG
Language : Thai
Default : No
Forced : No

Text #7
ID : 10
Format : VobSub
Codec ID : S_VOBSUB
Codec ID/Info : Picture based subtitle format used on DVDs
Title : Thai 1080p Out [BIG]
Language : Thai
Default : No
Forced : No

Text #8
ID : 11
Format : PGS
Codec ID : S_HDMV/PGS
Codec ID/Info : Picture based subtitle format used on BDs/HD-DVDs
Title : Thai PGS
Language : Thai
Default : No
Forced : No

Text #9
ID : 12
Format : PGS
Codec ID : S_HDMV/PGS
Codec ID/Info : Picture based subtitle format used on BDs/HD-DVDs
Title : Thai PGS Yellow
Language : Thai
Default : No
Forced : No

Text #10
ID : 13
Format : PGS
Codec ID : S_HDMV/PGS
Codec ID/Info : Picture based subtitle format used on BDs/HD-DVDs
Title : Thai PGS Out
Language : Thai
Default : No
Forced : No

Text #11
ID : 14
Format : UTF-8
Codec ID : S_TEXT/UTF8
Codec ID/Info : UTF-8 Plain Text
Title : English
Language : English
Default : No
Forced : No

Menu
00:00:00.000 : en:Chapter 1
00:06:21.560 : en:Chapter 2
00:19:30.680 : en:Chapter 3
00:26:56.280 : en:Chapter 4
00:39:26.680 : en:Chapter 5
00:50:55.320 : en:Chapter 6
00:57:12.480 : en:Chapter 7
01:06:26.480 : en:Chapter 8
01:18:48.240 : en:Chapter 9
01:26:03.440 : en:Chapter 10
01:30:10.360 : en:Chapter 11
01:37:52.400 : en:Chapter 12

DOWNLOAD


PART01 |||| PART02 |||| PART03 |||| PART04

PART01 |||| PART02 |||| PART03 |||| PART04

PART01 |||| PART02 |||| PART03 |||| PART04

PART01 |||| PART02 |||| PART03 |||| PART04

PART01 |||| PART02 |||| PART03 |||| PART04


4 Comments
  1. Rosem says

    ลิงก์เสียจ้า

    1. Admin
      Admin says

      แก้ไขเรียบร้อยฮ๊ะ

  2. Rosemarry Marry
    Rosemarry Marry says

    ลิงก์เสียเน้อ ‘3’

    1. Admin
      Admin says

      แก้ไขเรียบร้อยฮ๊ะ

Leave A Reply

อีเมล์ของคุณจะไม่แสดงให้เห็น Your email address will not be published.

%d bloggers like this: