[MINI Super-HQ] Harry Potter and the Sorcerer’s Stone (2001) แฮร์รี่ พอตเตอร์กับศิลาอาถรรพ์ ภาค 1 [1080p] [พากย์ไทย 5.1 + เสียงอังกฤษ 5.1] [บรรยายไทย + อังกฤษ] [เสียงไทย + ซับไทย] [PANDAFILE]

2

 Harry Potter and the Sorcerer's Stone (2001) แฮร์รี่ พอตเตอร์กับศิลาอาถรรพ์ ภาค 1

โหลดหนัง Harry Potter and the Sorcerer’s Stone (2001) แฮร์รี่ พอตเตอร์กับศิลาอาถรรพ์ ภาค 1 

Harry Potter and the Sorcerer's Stone (2001) 2h 32min | Adventure, Family, Fantasy | 22 November 2001 (Netherlands) Summary: An orphaned boy enrolls in a school of wizardry, where he learns the truth about himself, his family and the terrible evil that haunts the magical world.
Countries: UK, USALanguages: English

เรื่องย่อ Harry Potter and the Sorcerer’s Stone (2001) แฮร์รี่ พอตเตอร์กับศิลาอาถรรพ์ ภาค 1

เรื่องราวของ แฮร์รี่ พอตเตอร์ เด็กชายกำพร้าผู้มีแผลเป็นรูปสายฟ้าอยู่กลางหน้าผาก และพักอาศัยอยู่กับลุงและป้า ซึ่งมักจะหาเรื่องแฮร์รี่อยู่เสมอ และลูกพี่ลูกน้องที่กลั่นแกล้งเขาอยู่เป็นประจำ จนกระทั่งวันหนึ่ง เมื่อแฮร์รี่อายุได้ 11 ปี แฮร์รี่จึงทราบว่าเขาไม่ใช่คนธรรมดาๆ แต่เป็นพ่อมดที่โด่งดังคนหนึ่งของโลก และพ่อแม่ของเขาไม่ได้เสียชีวิตในอุบัติเหตุทางรถยนต ์ ดังที่ป้าเพตทูเนียของเขาว่าไว้ แต่ถูกฆาตกรรมในขณะที่กำลังปกป้องแฮร์รี่ โดยพ่อมดที่ชั่วร้ายที่สุดแห่งยุค ลอร์ดโวลเดอมอร์ แต่พลังอำนาจและร่างกายของลอร์ดโวลเดอมอร์กลับสูญสิ้ น เมื่อเขาพยายามสังหารแฮร์รี่ แฮร์รี่จึงต้องค้นหาอดีตเกี่ยวกับพ่อแม่ของเขา และเข้าเรียนในสถานศึกษาคาถาพ่อมดแม่มดและเวทมนตร์ศา สตร์ ฮอกวอตส์ ที่ซึ่งการผจญภัยของแฮร์รี่ และผองเพื่อนเริ่มต้นขึ้น

Complete name : [MINI Super-HQ]_1.Harry.Potter.and.the.Sorcerers.Stone.2001.1080p.Blu-ray.AC3.x264.One2loadup.com.mkv
Format : Matroska
Format version : Version 4 / Version 2
File size : 4.30 GiB
Duration : 2 h 32 min
Overall bit rate mode : Variable
Overall bit rate : 4 040 kb/s
Encoded date : UTC 2014-12-06 10:53:00
Writing application : mkvmerge v7.3.0 (‘Nouages’) 64bit built on Oct 22 2014 18:53:34
Writing library : libebml v1.3.0 + libmatroska v1.4.1

Video
ID : 1
Format : AVC
Format/Info : Advanced Video Codec
Format profile : [email protected]
Format settings, CABAC : Yes
Format settings, RefFrames : 4 frames
Codec ID : V_MPEG4/ISO/AVC
Duration : 2 h 32 min
Bit rate mode : Variable
Bit rate : 2 900 kb/s
Maximum bit rate : 100.0 Mb/s
Width : 1 920 pixels
Height : 792 pixels
Display aspect ratio : 2.40:1
Frame rate mode : Constant
Frame rate : 23.976 FPS
Color space : YUV
Chroma subsampling : 4:2:0
Bit depth : 8 bits
Scan type : Progressive
Bits/(Pixel*Frame) : 0.080
Stream size : 3.09 GiB (72%)
Title : [MINI Super-HQ]_1.Harry.Potter.and.the.Sorcerers.Stone.2001.1080p.Blu-ray.AC3.x264.One2loadup.com
Writing library : x264 core 130 r2273 b3065e6
Encoding settings : cabac=1 / ref=4 / deblock=1:0:0 / analyse=0x3:0x133 / me=umh / subme=11 / psy=1 / psy_rd=1.00:0.15 / mixed_ref=1 / me_range=64 / chroma_me=1 / trellis=2 / 8x8dct=1 / cqm=0 / deadzone=21,11 / fast_pskip=0 / chroma_qp_offset=-3 / threads=16 / lookahead_threads=1 / sliced_threads=0 / nr=0 / decimate=1 / interlaced=0 / bluray_compat=0 / constrained_intra=0 / bframes=4 / b_pyramid=2 / b_adapt=2 / b_bias=0 / direct=3 / weightb=1 / open_gop=0 / weightp=2 / keyint=250 / keyint_min=23 / scenecut=40 / intra_refresh=0 / rc_lookahead=120 / rc=2pass / mbtree=1 / bitrate=2900 / ratetol=1.0 / qcomp=0.60 / qpmin=0 / qpmax=69 / qpstep=4 / cplxblur=20.0 / qblur=0.5 / vbv_maxrate=99999 / vbv_bufsize=99999 / nal_hrd=vbr / ip_ratio=1.40 / aq=1:1.00
Language : English
Default : Yes
Forced : No

Audio #1
ID : 2
Format : AC-3
Format/Info : Audio Coding 3
Format settings, Endianness : Big
Codec ID : A_AC3
Duration : 2 h 32 min
Bit rate mode : Constant
Bit rate : 640 kb/s
Channel(s) : 6 channels
Channel positions : Front: L C R, Side: L R, LFE
Sampling rate : 48.0 kHz
Frame rate : 31.250 FPS (1536 SPF)
Bit depth : 16 bits
Compression mode : Lossy
Stream size : 697 MiB (16%)
Title : Thai AC3
Service kind : Complete Main
Default : Yes
Forced : No

Audio #2
ID : 3
Format : AC-3
Format/Info : Audio Coding 3
Format settings, Endianness : Big
Codec ID : A_AC3
Duration : 2 h 32 min
Bit rate mode : Constant
Bit rate : 448 kb/s
Channel(s) : 6 channels
Channel positions : Front: L C R, Side: L R, LFE
Sampling rate : 48.0 kHz
Frame rate : 31.250 FPS (1536 SPF)
Bit depth : 16 bits
Compression mode : Lossy
Stream size : 488 MiB (11%)
Title : Eng AC3
Service kind : Complete Main
Default : No
Forced : No

Text #1
ID : 4
Format : VobSub
Codec ID : S_VOBSUB
Codec ID/Info : Picture based subtitle format used on DVDs
Duration : 2 h 31 min
Bit rate : 1 834 b/s
Count of elements : 1255
Stream size : 1.99 MiB (0%)
Title : Thai 480p
Default : No
Forced : No

Text #2
ID : 5
Format : PGS
Codec ID : S_HDMV/PGS
Codec ID/Info : Picture based subtitle format used on BDs/HD-DVDs
Duration : 2 h 31 min
Bit rate : 22.5 kb/s
Count of elements : 2510
Stream size : 24.4 MiB (1%)
Title : Thai PGS
Default : No
Forced : No

Text #3
ID : 6
Format : PGS
Codec ID : S_HDMV/PGS
Codec ID/Info : Picture based subtitle format used on BDs/HD-DVDs
Duration : 2 h 31 min
Bit rate : 24.6 kb/s
Count of elements : 2608
Stream size : 26.6 MiB (1%)
Title : Eng PGS
Default : No
Forced : No

Text #4
ID : 7
Format : VobSub
Codec ID : S_VOBSUB
Codec ID/Info : Picture based subtitle format used on DVDs
Duration : 2 h 31 min
Bit rate : 2 101 b/s
Count of elements : 1304
Stream size : 2.27 MiB (0%)
Title : Eng 480p
Default : No
Forced : No

 

 Harry Potter and the Sorcerer's Stone (2001) แฮร์รี่ พอตเตอร์กับศิลาอาถรรพ์ ภาค 1

DOWNLOAD


PART01 |||| PART02 |||| PART03 |||| PART04 |||| PART05

PART01 |||| PART02 |||| PART03 |||| PART04 |||| PART05

PART01 |||| PART02 |||| PART03 |||| PART04 |||| PART05

PART01 |||| PART02 |||| PART03 |||| PART04 |||| PART05


2 Comments
  1. Orca
    Orca says

    ลิ้งเสียแล้วครับ ช่วยแก้หน่อยครับ

    1. Admin
      Admin says

      แก้ให้แล้วฮ๊ะ

Leave A Reply

Your email address will not be published.

%d bloggers like this: