[MINI Super-HQ] Harry Potter and the Chamber of Secrets (2002) แฮร์รี่ พอตเตอร์กับห้องแห่งความลับ ภาค 2 [1080p] [พากย์ไทย 5.1 + เสียงอังกฤษ 5.1] [บรรยายไทย + อังกฤษ] [เสียงไทย + ซับไทย] [PANDAFILE]

7

โหลดหนัง Harry Potter and the Chamber of Secrets (2002) แฮร์รี่ พอตเตอร์กับห้องแห่งความลับ ภาค 2

Harry Potter and the Chamber of Secrets | November 15, 2002 (United States) Summary: An ancient prophecy seems to be coming true when a mysterious presence begins stalking the corridors of a school of magic and leaving its victims paralyzed.
Countries: United Kingdom, United StatesLanguages: English, Latin

เรื่องย่อ Harry Potter and the Chamber of Secrets (2002) แฮร์รี่ พอตเตอร์กับห้องแห่งความลับ ภาค 2

เรื่องราวของเสียงประหลาดในผนังกำแพงของโรงเรียน ที่มีแฮร์รี่ พอตเตอร์ได้ยินเพียงผู้เดียว จนทำให้เป็นที่ทราบกันว่าพ่อมดแฮร์รี่ แท้จริงเป็นทายาทของงูที่สามารถเข้าใจคำพูดงูได้ เขาและเพื่อนรักจึงต้องค้นหาห้องแห่งความลับในโรงเรี ยน เพื่อนำตัวน้องสาวรอนที่ถูกงูจับไป กลับคืนมาจากห้องแห่งความลับ

Complete name : [MINI Super-HQ]_2.Harry.Potter.and.the.Chamber.of.Secrets.1080p.Blu-ray.AC3.x264.One2loadup.com.mkv
Format : Matroska
Format version : Version 4 / Version 2
File size : 4.29 GiB
Duration : 2 h 40 min
Overall bit rate mode : Variable
Overall bit rate : 3 819 kb/s
Encoded date : UTC 2014-12-05 15:52:50
Writing application : mkvmerge v7.3.0 (‘Nouages’) 64bit built on Oct 22 2014 18:53:34
Writing library : libebml v1.3.0 + libmatroska v1.4.1

Video
ID : 1
Format : AVC
Format/Info : Advanced Video Codec
Format profile : [email protected]
Format settings, CABAC : Yes
Format settings, RefFrames : 4 frames
Codec ID : V_MPEG4/ISO/AVC
Duration : 2 h 40 min
Bit rate mode : Variable
Bit rate : 2 480 kb/s
Maximum bit rate : 100.0 Mb/s
Width : 1 920 pixels
Height : 800 pixels
Display aspect ratio : 2.40:1
Frame rate mode : Constant
Frame rate : 23.976 FPS
Color space : YUV
Chroma subsampling : 4:2:0
Bit depth : 8 bits
Scan type : Progressive
Bits/(Pixel*Frame) : 0.067
Stream size : 2.79 GiB (65%)
Title : [MINI Super-HQ]_2.Harry.Potter.and.the.Chamber.of.Secrets.1080p.Blu-ray.AC3.x264.One2loadup.com
Writing library : x264 core 130 r2273 b3065e6
Encoding settings : cabac=1 / ref=4 / deblock=1:0:0 / analyse=0x3:0x133 / me=umh / subme=11 / psy=1 / psy_rd=1.00:0.15 / mixed_ref=1 / me_range=64 / chroma_me=1 / trellis=2 / 8x8dct=1 / cqm=0 / deadzone=21,11 / fast_pskip=0 / chroma_qp_offset=-3 / threads=16 / lookahead_threads=1 / sliced_threads=0 / nr=0 / decimate=1 / interlaced=0 / bluray_compat=0 / constrained_intra=0 / bframes=4 / b_pyramid=2 / b_adapt=2 / b_bias=0 / direct=3 / weightb=1 / open_gop=0 / weightp=2 / keyint=250 / keyint_min=23 / scenecut=40 / intra_refresh=0 / rc_lookahead=120 / rc=2pass / mbtree=1 / bitrate=2480 / ratetol=1.0 / qcomp=0.60 / qpmin=0 / qpmax=69 / qpstep=4 / cplxblur=20.0 / qblur=0.5 / vbv_maxrate=99999 / vbv_bufsize=99999 / nal_hrd=vbr / ip_ratio=1.40 / aq=1:1.00
Language : English
Default : Yes
Forced : No

Audio #1
ID : 2
Format : AC-3
Format/Info : Audio Coding 3
Format settings, Endianness : Big
Codec ID : A_AC3
Duration : 2 h 40 min
Bit rate mode : Constant
Bit rate : 640 kb/s
Channel(s) : 6 channels
Channel positions : Front: L C R, Side: L R, LFE
Sampling rate : 48.0 kHz
Frame rate : 31.250 FPS (1536 SPF)
Bit depth : 16 bits
Compression mode : Lossy
Stream size : 737 MiB (17%)
Title : Thai AC3
Service kind : Complete Main
Default : Yes
Forced : No

Audio #2
ID : 3
Format : AC-3
Format/Info : Audio Coding 3
Format settings, Endianness : Big
Codec ID : A_AC3
Duration : 2 h 40 min
Bit rate mode : Constant
Bit rate : 640 kb/s
Channel(s) : 6 channels
Channel positions : Front: L C R, Side: L R, LFE
Sampling rate : 48.0 kHz
Frame rate : 31.250 FPS (1536 SPF)
Bit depth : 16 bits
Compression mode : Lossy
Stream size : 737 MiB (17%)
Title : Eng AC3
Service kind : Complete Main
Default : No
Forced : No

Text #1
ID : 4
Format : VobSub
Codec ID : S_VOBSUB
Codec ID/Info : Picture based subtitle format used on DVDs
Duration : 2 h 40 min
Bit rate : 2 035 b/s
Count of elements : 1528
Stream size : 2.34 MiB (0%)
Title : Thai 480p
Default : No
Forced : No

Text #2
ID : 5
Format : PGS
Codec ID : S_HDMV/PGS
Codec ID/Info : Picture based subtitle format used on BDs/HD-DVDs
Duration : 2 h 40 min
Bit rate : 24.9 kb/s
Count of elements : 3056
Stream size : 28.6 MiB (1%)
Title : Thai PGS
Default : No
Forced : No

Text #3
ID : 6
Format : PGS
Codec ID : S_HDMV/PGS
Codec ID/Info : Picture based subtitle format used on BDs/HD-DVDs
Duration : 2 h 39 min
Bit rate : 27.6 kb/s
Count of elements : 3018
Stream size : 31.5 MiB (1%)
Title : Eng PGS
Default : No
Forced : No

Text #4
ID : 7
Format : VobSub
Codec ID : S_VOBSUB
Codec ID/Info : Picture based subtitle format used on DVDs
Duration : 2 h 39 min
Bit rate : 2 348 b/s
Count of elements : 1509
Stream size : 2.68 MiB (0%)
Title : Eng 480p
Default : No
Forced : No

 

DOWNLOAD


PART01 |||| PART02 |||| PART03 |||| PART04 |||| PART05

PART01 |||| PART02 |||| PART03 |||| PART04 |||| PART05

PART01 |||| PART02 |||| PART03 |||| PART04 |||| PART05

PART01 |||| PART02 |||| PART03 |||| PART04 |||| PART05

PART01 |||| PART02 |||| PART03 |||| PART04 |||| PART05


7 Comments
  1. Wabudhadhasunyata Vicoloudhalany

    ไฟล์โหลดไม่ได้อ่ะครับ

    1. Admin
      Admin says

      แก้ให้แล้วนะฮ๊ะ

  2. Orca
    Orca says

    ลิ้งเสียแล้วครับ ช่วยแก้หน่อยครับ

    1. Admin
      Admin says

      แก้ให้แล้วฮ๊ะ

  3. Riner Gerhard Huss says

    openload .. ทุกพาส
    We’re Sorry!
    We can’t find the file you are looking for. It maybe got deleted by the owner or was removed due a copyright violation.
    ลิงค์อื่นโหลดช้ามาก ..

    1. Admin
      Admin says

      upfile น่าจะโหลดเร็วที่สุดในบรรดา เชิฟโหลดแล้วนะ ถ้าบอกว่าลิ้ง upfile ช้ากว่า openload คงต้องเช็คเน็ตแล้วนะฮ๊ะ ตอนนี้แก้ให้แล้วฮ๊ะ สำหรับ openload

  4. Riner Gerhard Huss says

    ขอบคุณครับ .. เดี๋ยวลองใหม่ ..

Leave A Reply

อีเมล์ของคุณจะไม่แสดงให้เห็น Your email address will not be published.

%d bloggers like this: