[MINI Super-HQ] Harry Potter and the Prisoner of Azkaban (2004) แฮร์รี่ พอตเตอร์กับนักโทษแห่งอัซคาบัน ภาค 3 [1080p] [พากย์ไทย 5.1 + เสียงอังกฤษ 5.1] [บรรยายไทย + อังกฤษ] [เสียงไทย + ซับไทย] [PANDAFILE]

6

โหลดหนัง Harry Potter and the Prisoner of Azkaban (2004) แฮร์รี่ พอตเตอร์กับนักโทษแห่งอัซคาบัน ภาค 3

Harry Potter and the Prisoner of Azkaban | June 4, 2004 (United States) Summary: Harry Potter, Ron and Hermione return to Hogwarts School of Witchcraft and Wizardry for their third year of study, where they delve into the mystery surrounding an escaped prisoner who poses... Read all
Countries: United Kingdom, United StatesLanguages: English, Latin, Old English

เรื่องย่อ Harry Potter and the Prisoner of Azkaban (2004) แฮร์รี่ พอตเตอร์กับนักโทษแห่งอัซคาบัน ภาค 3

เรื่องราวของนักโทษจากคุกอัซคาบัน ซีเรียส แบล็ค ที่หลบหนีจากที่คุมขังสุดแน่นหนา เล่าลือกันว่า เขาคือสมุนคนเก่งของคนที่คุณไม่ควรเอ่ยนาม เขาว่าซีเรียสออกจากคุกครั้งนี้มีจุดประสงค์เพื่อมาสังหารพ่อมดน้อย แฮรี่ พอตเตอร์ ทำเอาพวกผู้คุมวิญญานออกตามหาตัวกันจ้าละหวั่น โดยเฉพาะพากันมาสิงอยู่ในโรงเรียนฮอว์ตวอต ให้เป็นที่หวาดหวั่นกันไปทั่ว เพราะกิตติศัพท์การดูดเอาความสุขทั้งปวงออกจากร่างของเหยื่ออย่างไร้ความ ปราณี

Complete name : [MINI Super-HQ]_3.Harry.Potter.and.the.Prisoner.of.Azkaban.2004.1080p.Blu-ray.AC3.x264.One2loadup.com.mkv
Format : Matroska
Format version : Version 4 / Version 2
File size : 4.30 GiB
Duration : 2 h 21 min
Overall bit rate mode : Variable
Overall bit rate : 4 349 kb/s
Encoded date : UTC 2014-12-08 02:02:58
Writing application : mkvmerge v7.3.0 (‘Nouages’) 64bit built on Oct 22 2014 18:53:34
Writing library : libebml v1.3.0 + libmatroska v1.4.1

Video
ID : 1
Format : AVC
Format/Info : Advanced Video Codec
Format profile : [email protected]
Format settings, CABAC : Yes
Format settings, RefFrames : 4 frames
Codec ID : V_MPEG4/ISO/AVC
Duration : 2 h 21 min
Bit rate mode : Variable
Bit rate : 3 000 kb/s
Maximum bit rate : 100.0 Mb/s
Width : 1 920 pixels
Height : 792 pixels
Display aspect ratio : 2.40:1
Frame rate mode : Constant
Frame rate : 23.976 FPS
Color space : YUV
Chroma subsampling : 4:2:0
Bit depth : 8 bits
Scan type : Progressive
Bits/(Pixel*Frame) : 0.082
Stream size : 2.97 GiB (69%)
Title : [MINI Super-HQ]_3.Harry.Potter.and.the.Prisoner.of.Azkaban.2004.1080p.Blu-ray.AC3.x264.One2loadup.com
Writing library : x264 core 130 r2273 b3065e6
Encoding settings : cabac=1 / ref=4 / deblock=1:0:0 / analyse=0x3:0x133 / me=umh / subme=11 / psy=1 / psy_rd=1.00:0.15 / mixed_ref=1 / me_range=64 / chroma_me=1 / trellis=2 / 8x8dct=1 / cqm=0 / deadzone=21,11 / fast_pskip=0 / chroma_qp_offset=-3 / threads=16 / lookahead_threads=1 / sliced_threads=0 / nr=0 / decimate=1 / interlaced=0 / bluray_compat=0 / constrained_intra=0 / bframes=4 / b_pyramid=2 / b_adapt=2 / b_bias=0 / direct=3 / weightb=1 / open_gop=0 / weightp=2 / keyint=250 / keyint_min=23 / scenecut=40 / intra_refresh=0 / rc_lookahead=120 / rc=2pass / mbtree=1 / bitrate=3000 / ratetol=1.0 / qcomp=0.60 / qpmin=0 / qpmax=69 / qpstep=4 / cplxblur=20.0 / qblur=0.5 / vbv_maxrate=99999 / vbv_bufsize=99999 / nal_hrd=vbr / ip_ratio=1.40 / aq=1:1.00
Language : English
Default : Yes
Forced : No

Audio #1
ID : 2
Format : AC-3
Format/Info : Audio Coding 3
Format settings, Endianness : Big
Codec ID : A_AC3
Duration : 2 h 21 min
Bit rate mode : Constant
Bit rate : 640 kb/s
Channel(s) : 6 channels
Channel positions : Front: L C R, Side: L R, LFE
Sampling rate : 48.0 kHz
Frame rate : 31.250 FPS (1536 SPF)
Bit depth : 16 bits
Compression mode : Lossy
Stream size : 649 MiB (15%)
Title : Thai AC3
Service kind : Complete Main
Default : Yes
Forced : No

Audio #2
ID : 3
Format : AC-3
Format/Info : Audio Coding 3
Format settings, Endianness : Big
Codec ID : A_AC3
Duration : 2 h 21 min
Bit rate mode : Constant
Bit rate : 640 kb/s
Channel(s) : 6 channels
Channel positions : Front: L C R, Side: L R, LFE
Sampling rate : 48.0 kHz
Frame rate : 31.250 FPS (1536 SPF)
Bit depth : 16 bits
Compression mode : Lossy
Stream size : 649 MiB (15%)
Title : Eng AC3
Service kind : Complete Main
Default : No
Forced : No

Text #1
ID : 4
Format : VobSub
Codec ID : S_VOBSUB
Codec ID/Info : Picture based subtitle format used on DVDs
Duration : 2 h 21 min
Bit rate : 2 382 b/s
Count of elements : 1404
Stream size : 2.40 MiB (0%)
Title : Thai 480p
Default : No
Forced : No

Text #2
ID : 5
Format : PGS
Codec ID : S_HDMV/PGS
Codec ID/Info : Picture based subtitle format used on BDs/HD-DVDs
Duration : 2 h 21 min
Bit rate : 29.2 kb/s
Count of elements : 2808
Stream size : 29.4 MiB (1%)
Title : Thai PGS
Default : No
Forced : No

Text #3
ID : 6
Format : PGS
Codec ID : S_HDMV/PGS
Codec ID/Info : Picture based subtitle format used on BDs/HD-DVDs
Duration : 2 h 21 min
Bit rate : 32.4 kb/s
Count of elements : 3232
Stream size : 32.7 MiB (1%)
Title : Eng PGS
Default : No
Forced : No

Text #4
ID : 7
Format : VobSub
Codec ID : S_VOBSUB
Codec ID/Info : Picture based subtitle format used on DVDs
Duration : 2 h 21 min
Bit rate : 2 776 b/s
Count of elements : 1616
Stream size : 2.80 MiB (0%)
Title : Eng 480p
Default : No
Forced : No

 

DOWNLOAD


PART01 |||| PART02 |||| PART03 |||| PART04 |||| PART05

PART01 |||| PART02 |||| PART03 |||| PART04 |||| PART05

PART01 |||| PART02 |||| PART03 |||| PART04 |||| PART05

PART01 |||| PART02 |||| PART03 |||| PART04 |||| PART05

PART01 |||| PART02 |||| PART03 |||| PART04 |||| PART05


6 Comments
  1. Orca
    Orca says

    ลิ้งเสียแล้วครับ ช่วยแก้หน่อยครับ

    1. Admin
      Admin says

      แก้ให้แล้วฮ๊ะ

  2. Phattarapol Chantarapaitoon
    Phattarapol Chantarapaitoon says

    เสียทุกภาคเลยครับ

    1. Admin
      Admin says

      เสียยังไงหว่า

  3. Peeemak says

    Part 3 ไฟล์เสียครับ

    1. Admin
      Admin says

      แก้ไขเรียบร้อย แนะนำแจ้งที่เดียวก็ได้ฮ๊ะ

Leave A Reply

อีเมล์ของคุณจะไม่แสดงให้เห็น Your email address will not be published.

%d bloggers like this: