[MINI Super-HQ] Alien (1979) เอเลี่ยน ภาค 1 [1080p] [พากย์ไทย 5.1 + เสียงอังกฤษ DTS] [บรรยายไทย + อังกฤษ] [เสียงไทย + ซับไทย] [PANDAFILE]

0

โหลดหนัง Alien (1979) เอเลี่ยน ภาค 1

Alien - Das unheimliche Wesen aus einer fremden Welt (1979) 1h 57min | Horror, Sci-Fi | 25 October 1979 (West Germany) Summary: After a space merchant vessel perceives an unknown transmission as a distress call, its landing on the source moon finds one of the crew attacked by a mysterious lifeform, and they soon realize that its life cycle has merely begun.
Countries: UK, USALanguages: English

เรื่องย่อ Alien (1979) เอเลี่ยน ภาค 1

หลังจากที่ลูกเรือของยานขนส่งอวกาศ “นอสโตรโม” เสร็จสิ้นการเดินทางจากห้วงจักรวาล พวกเขาก็ต้องตื่นขึ้นจากสภาวะหลับไหล เพื่อมารับสัญญาณฉุกเฉินที่ส่งมาจากดาวเคราะห์ดวงหนึ่งในเส้นทางผ่าน หลังจากที่ลงพื้นที่เพื่อตรวจสอบ พวกเขาก็ค้นพบยานอวกาศรูปร่างแปลกประหลาดจอดอยู่ และสัญญาณที่ส่งออกมาก็มาจากยานลำนี้และลูกเรือคนหนึ่งก็เข้าไปสำรวจภายในยาน สิ่งที่พวกเขาพบเห็นก็คือไข่ประหลาดของสิ่งมีชีวิตจากต่างดาวนับพันฟอง ในขณะที่กำลังตรวจสอบไข่ใบหนึ่งนั้น สิ่งที่อยู่ข้างในก็ฟักตัวออกมาและจู่โจมลูกเรือคนหนึ่งเข้า หลังจากที่กลับมาที่ยานนอสโตรโม พวกเขาก็ตั้งเส้นทางกลับโลก แต่สิ่งมีชีวิตสุดอันตรายตัวนี้กลับตายลงและทุกอย่างดูเหมือนจะไม่มีพิษภัยอะไร แต่หารู้ไม่ว่ามันได้ปล่อยตัวอ่อนเข้าไปในร่างกายของเขาแล้ว และกำลังจะฟักตัวออกมาเพื่อฆ่าทุกคนบนยานลำนี้!!!

Complete name : [MINI Super-HQ]_1.Alien.1979.1080p.DTS.x264.One2loadup.com.mkv
Format : Matroska
Format version : Version 4
File size : 5.63 GiB
Duration : 1 h 56 min
Overall bit rate : 6 910 kb/s

Video
ID : 1
Format : AVC
Format/Info : Advanced Video Codec
Format profile : [email protected]
Format settings : CABAC / 4 Ref Frames
Format settings, CABAC : Yes
Format settings, ReFrames : 4 frames
Codec ID : V_MPEG4/ISO/AVC
Duration : 1 h 56 min
Bit rate : 4 816 kb/s
Width : 1 920 pixels
Height : 816 pixels
Display aspect ratio : 2.35:1
Frame rate mode : Constant
Frame rate : 23.976 (24000/1001) FPS
Color space : YUV
Chroma subsampling : 4:2:0
Bit depth : 8 bits
Scan type : Progressive
Bits/(Pixel*Frame) : 0.128
Stream size : 3.92 GiB (70%)
Title : [MINI Super-HQ]_1.Alien.1979.1080p.DTS.x264.One2loadup.com
Writing library : x264 core 142 r2479 dd79a61
Encoding settings : cabac=1 / ref=1 / deblock=1:0:0 / analyse=0x1:0x111 / me=hex / subme=2 / psy=1 / psy_rd=1.00:0.00 / mixed_ref=0 / me_range=16 / chroma_me=1 / trellis=0 / 8x8dct=0 / cqm=0 / deadzone=21,11 / fast_pskip=1 / chroma_qp_offset=0 / threads=6 / lookahead_threads=2 / sliced_threads=0 / nr=0 / decimate=1 / interlaced=0 / bluray_compat=0 / constrained_intra=0 / bframes=3 / b_pyramid=2 / b_adapt=1 / b_bias=0 / direct=1 / weightb=1 / open_gop=0 / weightp=1 / keyint=240 / keyint_min=24 / scenecut=40 / intra_refresh=0 / rc_lookahead=10 / rc=crf / mbtree=1 / crf=20.0 / qcomp=0.60 / qpmin=0 / qpmax=69 / qpstep=4 / vbv_maxrate=20000 / vbv_bufsize=25000 / crf_max=0.0 / nal_hrd=none / filler=0 / ip_ratio=1.40 / aq=1:1.00
Language : Thai
Default : Yes
Forced : Yes
Color range : Limited
Color primaries : BT.709
Transfer characteristics : BT.709
Matrix coefficients : BT.709

Audio #1
ID : 2
Format : DTS
Format/Info : Digital Theater Systems
Codec ID : A_DTS
Duration : 1 h 56 min
Bit rate mode : Constant
Bit rate : 1 509 kb/s
Channel(s) : 6 channels
Channel layout : C L R Ls Rs LFE
Sampling rate : 48.0 kHz
Frame rate : 93.750 FPS (512 SPF)
Bit depth : 24 bits
Compression mode : Lossy
Stream size : 1.23 GiB (22%)
Title : Surround
Language : English
Default : No
Forced : No

Audio #2
ID : 3
Format : AC-3
Format/Info : Audio Coding 3
Commercial name : Dolby Digital
Codec ID : A_AC3
Duration : 1 h 56 min
Bit rate mode : Constant
Bit rate : 448 kb/s
Channel(s) : 6 channels
Channel layout : L R C LFE Ls Rs
Sampling rate : 48.0 kHz
Frame rate : 31.250 FPS (1536 SPF)
Bit depth : 16 bits
Compression mode : Lossy
Stream size : 374 MiB (6%)
Title : Surround
Language : Thai
Service kind : Complete Main
Default : Yes
Forced : Yes

Text #1
ID : 4
Format : PGS
Muxing mode : zlib
Codec ID : S_HDMV/PGS
Language : English
Default : No
Forced : No

Text #2
ID : 5
Format : PGS
Muxing mode : zlib
Codec ID : S_HDMV/PGS
Language : Thai
Default : Yes
Forced : Yes

Menu
00:00:00.000 : :Chapter 1
00:02:01.222 : :Chapter 2
00:09:16.823 : :Chapter 3
00:12:47.242 : :Chapter 4
00:18:37.050 : :Chapter 6
00:21:53.204 : :Chapter 8
00:23:53.157 : :Chapter 10
00:26:50.167 : :Chapter 12
00:31:06.882 : :Chapter 13
00:34:47.603 : :Chapter 14
00:39:13.493 : :Chapter 15
00:42:07.000 : :Chapter 16
00:46:25.383 : :Chapter 17
00:50:55.570 : :Chapter 18
00:53:35.938 : :Chapter 19
00:58:25.269 : :Chapter 20
01:03:32.576 : :Chapter 21
01:08:07.601 : :Chapter 22
01:11:00.690 : :Chapter 23
01:14:09.128 : :Chapter 24
01:15:50.521 : :Chapter 25
01:18:37.313 : :Chapter 26
01:24:10.229 : :Chapter 27
01:28:24.108 : :Chapter 28
01:30:54.424 : :Chapter 29
01:32:53.585 : :Chapter 30
01:34:44.613 : :Chapter 31
01:36:28.717 : :Chapter 32
01:39:26.686 : :Chapter 33
01:44:16.059 : :Chapter 34
01:47:05.770 : :Chapter 35
01:53:52.509 : :Chapter 36

DOWNLOAD


PART01 |||| PART02 |||| PART03 |||| PART04 |||| PART05 |||| PART06

PART01 |||| PART02 |||| PART03 |||| PART04 |||| PART05 |||| PART06

PART01 |||| PART02 |||| PART03 |||| PART04 |||| PART05 |||| PART06

PART01 |||| PART02 |||| PART03 |||| PART04 |||| PART05 |||| PART06


Leave A Reply

Your email address will not be published.

%d bloggers like this: