[MINI Super-HQ] Spider-Man: No Way Home (2021) สไปเดอร์แมน: โน เวย์ โฮม [1080p] [พากย์ไทย 5.1 + เสียงอังกฤษ DTS] [บรรยายไทย + อังกฤษ] [เสียงไทย + ซับไทย] [USERLOAD]

0

โหลดหนัง Spider-Man: No Way Home (2021) สไปเดอร์แมน: โน เวย์ โฮม

Spider-Man: No Way Home Action, Adventure, Fantasy, Sci-Fi | December 17, 2021 (United States) Summary: With Spider-Man's identity now revealed, Peter asks Doctor Strange for help. When a spell goes wrong, dangerous foes from other worlds start to appear, forcing Peter to discover what it trul... Read all
Countries: United StatesLanguages: English, Tagalog

เรื่องย่อ Spider-Man: No Way Home (2021) สไปเดอร์แมน: โน เวย์ โฮม

หลังจากถูกเปิดเผยตัวตนที่แท้จริง ความรับผิดชอบอันยิ่งใหญ่ของการเป็นซูเปอร์ฮีโร่ ขัดแย้งกับการดำเนินชีวิตแบบธรรมดาของเขาและทำให้คนที่เขารักตกอยู่ในอันตราย เขาจึงได้ไปขอความช่วยเหลือจากด็อกเตอร์สเตรนจ์เพื่อ ใช้เวทมนต์ทำให้ทุกคนลืมตัวตนจริงของ สไปเดอร์-แมน แต่แล้วได้เกิดเหตุการณ์ระหว่างร่ายมนต์ทำให้ส่งผลกระทบกับมัลติยูนิเวิรส์ปลดปล่อยอสรุกายร้ายที่เคยต่อกรกับ สไปเดอร์-แมนในพหุภพต่าง ๆ ออกมา ปีเตอร์ พารค์เกอร์ (ทอม ฮอลแลนด์) จะต้องลุกขึ้นสู้กับอุปสรรคอันใหญ่หลวงครั้งนี้ที่จะ เปลี่ยนแปลงไม่ใช่แค่ชีวิตเขา แต่รวมถึงอนาคตของพหุภพต่าง ๆ อีกด้วย!!!

Complete name : [MINI Super-HQ]_Spider-Man.No.Way.Home.2021.1080p.BrRip.DTS.x264.THD.One2loadup.com.mkv
Format : Matroska
Format version : Version 4
File size : 4.99 GiB
Duration : 2 h 28 min
Overall bit rate : 4 824 kb/s
Movie name : [MINI Super-HQ]_Spider-Man.No.Way.Home.2021.1080p.BrRip.DTS.x264.THD.One2loadup.com
Encoded date : UTC 2022-03-16 06:42:03
Writing application : mkvmerge v9.8.0 (‘Kuglblids’) 64bit
Writing library : libebml v1.3.4 + libmatroska v1.4.5
Cover : Yes
Attachments : cover.jpg

Video
ID : 1
Format : AVC
Format/Info : Advanced Video Codec
Format profile : [email protected]
Format settings : CABAC / 5 Ref Frames
Format settings, CABAC : Yes
Format settings, Reference : 5 frames
Codec ID : V_MPEG4/ISO/AVC
Duration : 2 h 28 min
Bit rate : 3 500 kb/s
Width : 1 920 pixels
Height : 804 pixels
Display aspect ratio : 2.40:1
Frame rate mode : Constant
Frame rate : 23.976 (24000/1001) FPS
Color space : YUV
Chroma subsampling : 4:2:0
Bit depth : 8 bits
Scan type : Progressive
Bits/(Pixel*Frame) : 0.095
Stream size : 3.63 GiB (73%)
Title : [MINI Super-HQ]_Spider-Man.No.Way.Home.2021.1080p.BrRip.DTS.x264.THD.One2loadup.com
Writing library : x264 core 161 r3043 59c06095
Encoding settings : cabac=1 / ref=5 / deblock=1:0:0 / analyse=0x1:0x131 / me=umh / subme=10 / psy=1 / psy_rd=1.00:0.20 / mixed_ref=1 / me_range=32 / chroma_me=1 / trellis=2 / 8x8dct=0 / cqm=0 / deadzone=21,11 / fast_pskip=0 / chroma_qp_offset=-3 / threads=24 / lookahead_threads=6 / sliced_threads=0 / nr=0 / decimate=1 / interlaced=0 / bluray_compat=0 / constrained_intra=0 / bframes=10 / b_pyramid=2 / b_adapt=2 / b_bias=0 / direct=3 / weightb=1 / open_gop=0 / weightp=2 / keyint=250 / keyint_min=23 / scenecut=40 / intra_refresh=0 / rc_lookahead=60 / rc=2pass / mbtree=0 / bitrate=3500 / ratetol=1.0 / qcomp=0.60 / qpmin=0 / qpmax=69 / qpstep=4 / cplxblur=20.0 / qblur=0.5 / vbv_maxrate=50000 / vbv_bufsize=62500 / nal_hrd=none / filler=0 / ip_ratio=1.40 / pb_ratio=1.30 / aq=1:1.00
Language : English
Default : Yes
Forced : No
Color range : Limited
Color primaries : BT.709
Transfer characteristics : BT.709
Matrix coefficients : BT.709

Audio #1
ID : 2
Format : AC-3
Format/Info : Audio Coding 3
Commercial name : Dolby Digital
Codec ID : A_AC3
Duration : 2 h 28 min
Bit rate mode : Constant
Bit rate : 384 kb/s
Channel(s) : 6 channels
Channel layout : L R C LFE Ls Rs
Sampling rate : 48.0 kHz
Frame rate : 31.250 FPS (1536 SPF)
Compression mode : Lossy
Stream size : 407 MiB (8%)
Title : Thai 5.1 Master
Language : Thai
Service kind : Complete Main
Default : Yes
Forced : Yes

Audio #2
ID : 3
Format : DTS
Format/Info : Digital Theater Systems
Codec ID : A_DTS
Duration : 2 h 28 min
Bit rate mode : Constant
Bit rate : 755 kb/s
Channel(s) : 6 channels
Channel layout : C L R Ls Rs LFE
Sampling rate : 48.0 kHz
Frame rate : 93.750 FPS (512 SPF)
Bit depth : 24 bits
Compression mode : Lossy
Stream size : 800 MiB (16%)
Title : English DTS-5.1
Language : English
Default : No
Forced : No

Text #1
ID : 4
Format : PGS
Codec ID : S_HDMV/PGS
Codec ID/Info : Picture based subtitle format used on BDs/HD-DVDs
Duration : 2 h 28 min
Bit rate : 39.3 kb/s
Count of elements : 3900
Stream size : 41.6 MiB (1%)
Title : Thai 1080p PGS
Language : Thai
Default : Yes
Forced : Yes

Text #2
ID : 5
Format : VobSub
Codec ID : S_VOBSUB
Codec ID/Info : Picture based subtitle format used on DVDs
Duration : 2 h 28 min
Bit rate : 9 336 b/s
Count of elements : 1949
Stream size : 9.88 MiB (0%)
Title : Thai 1080p
Language : Thai
Default : No
Forced : No

Text #3
ID : 6
Format : PGS
Codec ID : S_HDMV/PGS
Codec ID/Info : Picture based subtitle format used on BDs/HD-DVDs
Duration : 2 h 28 min
Bit rate : 32.5 kb/s
Count of elements : 3896
Stream size : 34.4 MiB (1%)
Title : Thai PGS BluRay Master
Language : Thai
Default : No
Forced : No

Text #4
ID : 7
Format : PGS
Codec ID : S_HDMV/PGS
Codec ID/Info : Picture based subtitle format used on BDs/HD-DVDs
Duration : 2 h 28 min
Bit rate : 37.9 kb/s
Count of elements : 3900
Stream size : 40.2 MiB (1%)
Title : Thai 1080p Out PGS
Language : Thai
Default : No
Forced : No

Text #5
ID : 8
Format : VobSub
Codec ID : S_VOBSUB
Codec ID/Info : Picture based subtitle format used on DVDs
Duration : 2 h 28 min
Bit rate : 8 947 b/s
Count of elements : 1949
Stream size : 9.47 MiB (0%)
Title : Thai 1080p Out
Language : Thai
Default : No
Forced : No

Text #6
ID : 9
Format : VobSub
Codec ID : S_VOBSUB
Codec ID/Info : Picture based subtitle format used on DVDs
Duration : 2 h 28 min
Bit rate : 12.7 kb/s
Count of elements : 1949
Stream size : 13.4 MiB (0%)
Title : Thai 1080p Big [Yellow]
Language : Thai
Default : No
Forced : No

Text #7
ID : 10
Format : PGS
Codec ID : S_HDMV/PGS
Codec ID/Info : Picture based subtitle format used on BDs/HD-DVDs
Duration : 2 h 27 min
Bit rate : 35.3 kb/s
Count of elements : 3833
Stream size : 37.4 MiB (1%)
Title : English PGS
Language : English
Default : No
Forced : No

Text #8
ID : 11
Format : UTF-8
Codec ID : S_TEXT/UTF8
Codec ID/Info : UTF-8 Plain Text
Duration : 2 h 27 min
Bit rate : 60 b/s
Count of elements : 2115
Stream size : 65.5 KiB (0%)
Title : English
Language : English
Default : No
Forced : No

Text #9
ID : 12
Format : UTF-8
Codec ID : S_TEXT/UTF8
Codec ID/Info : UTF-8 Plain Text
Duration : 2 h 27 min
Bit rate : 68 b/s
Count of elements : 2403
Stream size : 73.7 KiB (0%)
Title : English [SDH]
Language : English
Default : No
Forced : No

Menu
00:00:00.000 : en:Chapter 01
00:05:03.177 : en:Chapter 02
00:11:58.591 : en:Chapter 03
00:18:38.909 : en:Chapter 04
00:27:00.451 : en:Chapter 05
00:37:21.239 : en:Chapter 06
00:48:02.003 : en:Chapter 07
00:59:51.795 : en:Chapter 08
01:04:06.634 : en:Chapter 09
01:09:51.311 : en:Chapter 10
01:18:29.453 : en:Chapter 11
01:28:59.625 : en:Chapter 12
01:33:48.287 : en:Chapter 13
01:46:38.390 : en:Chapter 14
02:05:39.323 : en:Chapter 15
02:13:03.600 : en:Chapter 16

DOWNLOAD


PART01 |||| PART02 |||| PART03 |||| PART04 |||| PART05 |||| PART06

PART01 |||| PART02 |||| PART03 |||| PART04 |||| PART05 |||| PART06

PART01 |||| PART02 |||| PART03 |||| PART04 |||| PART05 |||| PART06

PART01 |||| PART02 |||| PART03 |||| PART04 |||| PART05 |||| PART06

PART01 |||| PART02 |||| PART03 |||| PART04 |||| PART05 |||| PART06


Leave A Reply

อีเมล์ของคุณจะไม่แสดงให้เห็น Your email address will not be published.

%d bloggers like this: