[MINI-HD] Step Up 2: The Streets (2008) สเต็ปโดนใจ หัวใจโดนเธอ ภาค 2 [1080p] [พากย์ไทย 5.1 + เสียงอังกฤษ DTS] [บรรยายไทย + อังกฤษ] [เสียงไทย + ซับไทย] [OPENLOAD]

0

โหลดหนัง Step Up 2: The Streets (2008) สเต็ปโดนใจ หัวใจโดนเธอ ภาค 2

Step Up 2: The Streets (2008) 1h 38min | Drama, Music, Romance | 14 February 2008 (USA) Summary: Romantic sparks occur between two dance students from different backgrounds at the Maryland School of the Arts.
Countries: USALanguages: English, Russian

เรื่องย่อ Step Up 2: The Streets (2008) สเต็ปโดนใจ หัวใจโดนเธอ ภาค 2

ในชีวิตของสาวน้อยนักเต้น แอนดี้ เวสต์ (บริอาน่า เอวิแกน) ไม่เคยได้อะไรมาง่าย ๆ ไม่เคยเลย นอกจากการเต้น หลังจากที่แม่ของเธอเสียชีวิต แอนดี้ก็ไปอยู่กับซาร่า (ซอนย่า ซอห์น) เพื่อนรักของแม่ แต่บ้านของซาร่าก็เป็นอีกที่หนึ่งที่เธอรู้สึกไม่เป็นตัวของตัวเองสำหรับแอนดี้ ครอบครัวที่แท้จริงของเธอคือกลุ่มนักเต้น “410” และ ไทเลอร์ เกจ (แชนนิ่ง เททั่ม) เพื่อนบ้านที่คอยดูแลและปกป้องเธอตลอดมาหลังจากโดดเร ียนเป็นร้อยครั้งเพื่อ ไปซ้อมเต้นกับกลุ่ม 410 ซาร่าก็เหลืออดกับแอนดี้ และตั้งท่าจะส่งเธอไปอยู่กับป้าในเท็กซัส แต่โชคดีที่ไทเลอร์ยื่นมาเข้ามาช่วย โดยเกลี้ยกล่อมให้ซาร่าปล่อยให้แอนดี้อยู่ในบัลติมอร ์ ถ้าแอนดี้ยอมเข้เรียนในโรงเรียนสอนศิลปะแห่งแมรี่แลนด์ ซึ่งแอนดี้ไม่มีทางเลือกอื่น นอกจากยอมเข้าไปเรียนเมื่อเข้าไปเรียนในโรงเรียนสอนศิลปะสุดไฮโซประจำรัฐ แอนดี้ก็ต้องดิ้นรนเพื่อปรับตัวเข้ากับสังคมใหม่ ขณะเดียวกันก็พยายามรักษาวิถีชีวิตเดิมไว้ แต่ไม่นานเธอก็วุ่นอยู่กับกิจกรรมของโรงเรียนใหม่ สเตปโดนใจ หัวใจโดนเธอ และพลาดนัดซ้อมกับ 410 หลายครั้ง จนถูกขับออกจากกลุ่ม แต่แอนดี้ไม่ยอมแพ้ เธอเข้าร่วมทีมเต้นของนักเต้นสุดฮอตประจำโรงเรียน เชส คอลลินส์ (โรเบิร์ท ฮอฟแมน) ที่ลงสมัครเข้าแข่งขันการเต้นใต้ดินของบัลติมอร์ที่เรียกว่า “เดอะสตรีทส์” ความรู้สึกดีๆก่อตัวขึ้นระหว่างแอนดี้และเชส สุดท้ายแอนดี้ก็ค้นพบหนทางในการมีชีวิตอยู่กับฝันของตัวเอง พร้อมๆกับสร้างสะพานเชื่อมสู่สังคมใหม่ที่เธอรู้สึกแปลกแยกในตอนแรก

Complete name : [MINI-HD]_Step.Up.2.The.Streets.2008.1080p.BDRip.DTS.x264.One2loadup.com.mkv
Format : Matroska
Format version : Version 4
File size : 8.78 GiB
Duration : 1 h 37 min
Overall bit rate : 12.8 Mb/s
Movie name : [MINI-HD]_Step.Up.2.The.Streets.2008.1080p.BDRip.DTS.x264.One2loadup.com
Encoded date : UTC 2018-03-22 14:41:59
Writing application : mkvmerge v8.2.0 (‘World of Adventure’) 64bit
Writing library : libebml v1.3.1 + libmatroska v1.4.2

Video
ID : 1
Format : AVC
Format/Info : Advanced Video Codec
Format profile : [email protected]1
Format settings : CABAC / 5 Ref Frames
Format settings, CABAC : Yes
Format settings, ReFrames : 5 frames
Codec ID : V_MPEG4/ISO/AVC
Duration : 1 h 37 min
Bit rate : 11.0 Mb/s
Width : 1 920 pixels
Height : 1 040 pixels
Display aspect ratio : 1.85:1
Frame rate mode : Constant
Frame rate : 23.976 FPS
Color space : YUV
Chroma subsampling : 4:2:0
Bit depth : 8 bits
Scan type : Progressive
Bits/(Pixel*Frame) : 0.229
Stream size : 7.51 GiB (86%)
Title : [MINI-HD]_Step.Up.2.The.Streets.2008.1080p.BDRip.DTS.x264.One2loadup.com
Writing library : x264 core 60 r890 a55f1c3
Encoding settings : cabac=1 / ref=5 / deblock=1:0:0 / analyse=0x3:0x133 / me=umh / subme=6 / brdo=1 / mixed_ref=1 / me_range=16 / chroma_me=1 / trellis=1 / 8x8dct=1 / cqm=0 / deadzone=21,11 / chroma_qp_offset=0 / threads=6 / nr=0 / decimate=1 / mbaff=0 / bframes=3 / b_pyramid=1 / b_adapt=1 / b_bias=0 / direct=1 / wpredb=1 / bime=1 / keyint=250 / keyint_min=25 / scenecut=40(pre) / rc=2pass / bitrate=10985 / ratetol=1.0 / rceq=’blurCplx^(1-qComp)’ / qcomp=1.00 / qpmin=10 / qpmax=51 / qpstep=4 / cplxblur=20.0 / qblur=0.5 / ip_ratio=1.40 / pb_ratio=1.30 / aq=2:1.00
Language : English
Default : Yes
Forced : No

Audio #1
ID : 2
Format : AC-3
Format/Info : Audio Coding 3
Commercial name : Dolby Digital
Codec ID : A_AC3
Duration : 1 h 37 min
Bit rate mode : Constant
Bit rate : 448 kb/s
Channel(s) : 6 channels
Channel layout : L R C LFE Ls Rs
Sampling rate : 44.1 kHz
Frame rate : 28.711 FPS (1536 SPF)
Bit depth : 16 bits
Compression mode : Lossy
Stream size : 313 MiB (3%)
Title : Thai AC-3
Language : Thai
Service kind : Complete Main
Default : Yes
Forced : Yes

Audio #2
ID : 3
Format : DTS
Format/Info : Digital Theater Systems
Codec ID : A_DTS
Duration : 1 h 37 min
Bit rate mode : Constant
Bit rate : 755 kb/s
Channel(s) : 6 channels
Channel layout : C L R Ls Rs LFE
Sampling rate : 48.0 kHz
Frame rate : 93.750 FPS (512 SPF)
Bit depth : 24 bits
Compression mode : Lossy
Delay relative to video : 11 ms
Stream size : 528 MiB (6%)
Title : Eng DTS 755kbps
Language : English
Default : No
Forced : No

Audio #3
ID : 4
Format : AC-3
Format/Info : Audio Coding 3
Commercial name : Dolby Digital
Codec ID : A_AC3
Duration : 1 h 37 min
Bit rate mode : Constant
Bit rate : 640 kb/s
Channel(s) : 6 channels
Channel layout : L R C LFE Ls Rs
Sampling rate : 48.0 kHz
Frame rate : 31.250 FPS (1536 SPF)
Bit depth : 16 bits
Compression mode : Lossy
Stream size : 448 MiB (5%)
Title : Eng AC-3
Language : English
Service kind : Complete Main
Default : No
Forced : No

Text #1
ID : 5
Format : VobSub
Muxing mode : zlib
Codec ID : S_VOBSUB
Codec ID/Info : Picture based subtitle format used on DVDs
Duration : 1 h 30 min
Bit rate : 3 686 b/s
Count of elements : 1176
Stream size : 2.38 MiB (0%)
Title : Thai
Language : Thai
Default : No
Forced : No

Text #2
ID : 6
Format : VobSub
Muxing mode : zlib
Codec ID : S_VOBSUB
Codec ID/Info : Picture based subtitle format used on DVDs
Duration : 1 h 30 min
Bit rate : 1 422 b/s
Count of elements : 1176
Stream size : 939 KiB (0%)
Title : Thai
Language : Thai
Default : No
Forced : No

Text #3
ID : 7
Format : PGS
Muxing mode : zlib
Codec ID : S_HDMV/PGS
Codec ID/Info : Picture based subtitle format used on BDs/HD-DVDs
Duration : 1 h 30 min
Bit rate : 4 995 b/s
Count of elements : 2354
Stream size : 3.22 MiB (0%)
Title : Thai PGS
Language : Thai
Default : No
Forced : No

Text #4
ID : 8
Format : VobSub
Muxing mode : zlib
Codec ID : S_VOBSUB
Codec ID/Info : Picture based subtitle format used on DVDs
Duration : 1 h 30 min
Bit rate : 3 688 b/s
Count of elements : 1176
Stream size : 2.38 MiB (0%)
Title : Thai Out
Language : Thai
Default : No
Forced : No

Text #5
ID : 9
Format : UTF-8
Codec ID : S_TEXT/UTF8
Codec ID/Info : UTF-8 Plain Text
Duration : 1 h 35 min
Bit rate : 60 b/s
Count of elements : 1168
Stream size : 42.1 KiB (0%)
Title : Eng
Language : English
Default : No
Forced : No

Text #6
ID : 10
Format : UTF-8
Codec ID : S_TEXT/UTF8
Codec ID/Info : UTF-8 Plain Text
Duration : 1 h 30 min
Bit rate : 85 b/s
Count of elements : 891
Stream size : 56.6 KiB (0%)
Title : Russian
Language : Russian
Default : No
Forced : No

Text #7
ID : 11
Format : UTF-8
Codec ID : S_TEXT/UTF8
Codec ID/Info : UTF-8 Plain Text
Duration : 1 h 30 min
Bit rate : 76 b/s
Count of elements : 860
Stream size : 50.6 KiB (0%)
Title : Ukrainian
Language : Ukrainian
Default : No
Forced : No

DOWNLOAD


PART01 |||| PART02 |||| PART03 |||| PART04 |||| PART05

PART01 |||| PART02 |||| PART03 |||| PART04 |||| PART05

PART01 |||| PART02 |||| PART03 |||| PART04 |||| PART05

PART01 |||| PART02 |||| PART03 |||| PART04 |||| PART05


Leave A Reply

Your email address will not be published.

%d bloggers like this: