[ฝรั่ง] Cosmoball (2020) คอสโมบอล เกมผ่าจักรวาล [1080p] [พากย์ไทยโรง 2.0 + เสียงอังกฤษ 5.1] [บรรยายอังกฤษ] [เสียงไทยโรง + ซับอังกฤษ] [PANDAFILE]

0

โหลดหนัง Cosmoball (2020) คอสโมบอล เกมผ่าจักรวาล

Cosmoball (2020) 1h 58min | Action, Sci-Fi, Sport | 27 August 2020 (Russia) Summary: An enormous spaceship hovers over Earth-this is a stadium, which hosts sports events that resemble soccer but at mind-boggling speeds. The name of the game is cosmoball.
Countries: RussiaLanguages: Russian

เรื่องย่อ Cosmoball (2020) คอสโมบอล เกมผ่าจักรวาล

ในโลกอนาคตที่อนาคตของดาวเคราะห์ถูกตัดสินด้วยกีฬาฟุตบอลอวกาศที่ถูกเรียกว่า “คอสโมบอล” เมื่อเผ่าพันธุ์เอเลี่ยนยอดฝีมือในกีฬาชนิดนี้หวังจะ รุกรานมนุษย์ มีเพียงมนุษย์กลุ่มหนึ่งที่ต้องร่วมมือกับหุ่นยนต์สุดล้ำ ในการฝึกฝนและเข้าแข่งขันในทัวร์นาเมนท์คอสโมบอล ที่มีเดิมพันเป็นชะตากรรมของมวลมนุษย์ชาติ

Complete name : Cosmoball.2020.1080p.WEB-DL.AC3.H.264.THR.One2loadup.com.mkv
Format : Matroska
Format version : Version 4
File size : 4.15 GiB
Duration : 1 h 58 min
Overall bit rate : 5 019 kb/s
Movie name : EVO
Encoded date : UTC 2020-11-03 17:10:23
Writing application : mkvmerge v47.0.0 (‘Black Flag’) 64-bit
Writing library : libebml v1.3.10 + libmatroska v1.5.2

Video
ID : 3
Format : AVC
Format/Info : Advanced Video Codec
Format profile : [email protected]
Format settings : CABAC / 5 Ref Frames
Format settings, CABAC : Yes
Format settings, ReFrames : 5 frames
Codec ID : V_MPEG4/ISO/AVC
Duration : 1 h 58 min
Bit rate : 4 518 kb/s
Width : 1 920 pixels
Height : 804 pixels
Display aspect ratio : 2.40:1
Frame rate mode : Constant
Frame rate : 24.000 FPS
Color space : YUV
Chroma subsampling : 4:2:0
Bit depth : 8 bits
Scan type : Progressive
Bits/(Pixel*Frame) : 0.122
Stream size : 3.73 GiB (90%)
Language : English
Default : Yes
Forced : No
Color range : Limited
Color primaries : BT.709
Transfer characteristics : BT.709
Matrix coefficients : BT.709

Audio #1
ID : 1
Format : AAC LC
Format/Info : Advanced Audio Codec Low Complexity
Codec ID : A_AAC-2
Duration : 1 h 58 min
Bit rate : 127 kb/s
Channel(s) : 2 channels
Channel layout : L R
Sampling rate : 48.0 kHz
Frame rate : 46.875 FPS (1024 SPF)
Compression mode : Lossy
Delay relative to video : 4 s 958 ms
Stream size : 108 MiB (3%)
Default : No
Forced : No

Audio #2
ID : 2
Format : AC-3
Format/Info : Audio Coding 3
Commercial name : Dolby Digital
Codec ID : A_AC3
Duration : 1 h 58 min
Bit rate mode : Constant
Bit rate : 384 kb/s
Channel(s) : 6 channels
Channel layout : L R C LFE Ls Rs
Sampling rate : 48.0 kHz
Frame rate : 31.250 FPS (1536 SPF)
Bit depth : 16 bits
Compression mode : Lossy
Delay relative to video : -42 ms
Stream size : 324 MiB (8%)
Language : English
Service kind : Complete Main
Default : Yes
Forced : No

Text
ID : 4
Format : UTF-8
Codec ID : S_TEXT/UTF8
Codec ID/Info : UTF-8 Plain Text
Duration : 1 h 54 min
Bit rate : 40 b/s
Count of elements : 1272
Stream size : 33.8 KiB (0%)
Language : English
Default : Yes
Forced : Yes

Menu
00:00:00.000 : en:Chapter 01
00:06:56.708 : en:Chapter 02
00:15:26.124 : en:Chapter 03
00:30:45.331 : en:Chapter 04
00:42:17.414 : en:Chapter 05
01:03:39.955 : en:Chapter 06
01:20:14.330 : en:Chapter 07
01:29:21.871 : en:Chapter 08
01:47:17.453 : en:Chapter 09
01:54:41.828 : en:Chapter 10

DOWNLOAD


PART01 |||| PART02 |||| PART03 |||| PART04 |||| PART05

PART01 |||| PART02 |||| PART03 |||| PART04 |||| PART05

PART01 |||| PART02 |||| PART03 |||| PART04 |||| PART05

PART01 |||| PART02 |||| PART03 |||| PART04 |||| PART05

PART01 |||| PART02 |||| PART03 |||| PART04 |||| PART05



แจ้งหนังเสีย หรือโหลดไม่ได้ ทั้งลิ้งฟรีและ vip สามารถกดที่รูปด้านบนนี้ได้เลย

: Disable Comments
%d bloggers like this: