[MINI Super-HQ] The Incredible Hulk (2008) ฮัลค์ มนุษย์ยักษ์จอมพลัง ภาค 2 [1080p] [พากย์ไทย 5.1 + อังกฤษ 5.1] [บรรยายไทย + อังกฤษ] [Modified] [พากย์ไทย + ซับไทย] [OPENLOAD]

8

The Incredible Hulk (2008)

โหลดหนัง The Incredible Hulk (2008) ฮัลค์ มนุษย์ยักษ์จอมพลัง ภาค 2

The Incredible Hulk (2008) 1h 52min | Action, Adventure, Sci-Fi | 19 June 2008 (Netherlands) Summary: Bruce Banner, a scientist on the run from the U.S. Government, must find a cure for the monster he turns into, whenever he loses his temper.
Countries: USALanguages: English, Portuguese, Spanish

เรื่องย่อ The Incredible Hulk (2008) ฮัลค์ มนุษย์ยักษ์จอมพลัง ภาค 2

บรู๊ซ แบนเนอร์ (เอ็ดเวิร์ด นอร์ตั้น) นักวิทยาศาสตร์ที่กลายร่างเป็นยักษ์เขียวมุ่งคิดค้นวิธีควบคุมอารมณ์ ในขณะที่ฝ่ายทหารก็ไม่ปล่อยให้เขาได้อยู่อย่างสงบ หรือใช้ชีวิตอย่างมีความสุขกับ เบ็ตตี้ รอส (ลิฟ ไทเลอร์) หญิงคนรัก ขณะที่วายร้ายตัวใหม่ ดิ แอ็บโด มิเนชั่น (ทิม ร็อธ) ก็ไล่ล่ามนุษย์ตัวเขียวอย่างไม่ลดละ

Complete name : [MINI Super-HQ]_The.Incredible.Hulk.2008.1080p.BluRay.AC3.x264.One2loadup.com.mkv
Format : Matroska
Format version : Version 2
File size : 4.33 GiB
Duration : 1 h 52 min
Overall bit rate mode : Variable
Overall bit rate : 5 520 kb/s
Movie name : [MINI Super-HQ]_The.Incredible.Hulk.2008.1080p.BluRay.AC3.x264.One2loadup.com
Encoded date : UTC 2017-08-04 05:46:48
Writing application : mkvmerge v5.7.0 (‘The Whirlwind’) built on Jul 8 2012 20:08:51
Writing library : libebml v1.2.3 + libmatroska v1.3.0

Video
ID : 1
Format : AVC
Format/Info : Advanced Video Codec
Format profile : High[email protected]
Format settings : CABAC / 4 Ref Frames
Format settings, CABAC : Yes
Format settings, ReFrames : 4 frames
Muxing mode : Header stripping
Codec ID : V_MPEG4/ISO/AVC
Duration : 1 h 52 min
Bit rate mode : Variable
Bit rate : 4 386 kb/s
Maximum bit rate : 25.0 Mb/s
Width : 1 920 pixels
Height : 816 pixels
Display aspect ratio : 2.35:1
Frame rate mode : Constant
Frame rate : 23.976 (24000/1001) FPS
Color space : YUV
Chroma subsampling : 4:2:0
Bit depth : 8 bits
Scan type : Progressive
Bits/(Pixel*Frame) : 0.117
Stream size : 3.44 GiB (79%)
Title : ETRG
Writing library : x264 core 148 r2638 7599210
Encoding settings : cabac=1 / ref=4 / deblock=1:-1:-1 / analyse=0x3:0x133 / me=tesa / subme=11 / psy=1 / psy_rd=1.00:0.15 / mixed_ref=1 / me_range=24 / chroma_me=1 / trellis=2 / 8x8dct=1 / cqm=0 / deadzone=21,11 / fast_pskip=0 / chroma_qp_offset=-3 / threads=12 / lookahead_threads=1 / sliced_threads=0 / nr=0 / decimate=1 / interlaced=0 / bluray_compat=0 / constrained_intra=0 / bframes=4 / b_pyramid=2 / b_adapt=2 / b_bias=0 / direct=3 / weightb=1 / open_gop=0 / weightp=2 / keyint=240 / keyint_min=24 / scenecut=40 / intra_refresh=0 / rc_lookahead=60 / rc=crf / mbtree=1 / crf=25.0 / qcomp=0.65 / qpmin=0 / qpmax=69 / qpstep=4 / vbv_maxrate=25000 / vbv_bufsize=25000 / crf_max=0.0 / nal_hrd=vbr / filler=0 / ip_ratio=1.40 / aq=3:0.95
Default : Yes
Forced : No
Statistics Tags Issue : mkvmerge v7.7.0 (‘Six Voices’) 32bit built on Feb 28 2015 23:23:00 2016-02-04 10:46:24 / mkvmerge v5.7.0 (‘The Whirlwind’) built on Jul 8 2012 20:08:51 2017-08-04 05:46:48
FromStats_BitRate : 4484196
FromStats_Duration : 01:52:14.061000000
FromStats_FrameCount : 161456
FromStats_StreamSize : 3774606739

Audio #1
ID : 2
Format : AC-3
Format/Info : Audio Coding 3
Muxing mode : Header stripping
Codec ID : A_AC3
Duration : 1 h 52 min
Bit rate mode : Constant
Bit rate : 576 kb/s
Channel(s) : 6 channels
Channel positions : Front: L C R, Side: L R, LFE
Sampling rate : 48.0 kHz
Frame rate : 31.250 FPS (1536 SPF)
Bit depth : 16 bits
Compression mode : Lossy
Stream size : 462 MiB (10%)
Title : English AC3 5.1 at 576 Kbps_ETRG
Language : English
Service kind : Complete Main
Default : Yes
Forced : No
Statistics Tags Issue : mkvmerge v7.7.0 (‘Six Voices’) 32bit built on Feb 28 2015 23:23:00 2016-02-04 10:46:24 / mkvmerge v5.7.0 (‘The Whirlwind’) built on Jul 8 2012 20:08:51 2017-08-04 05:46:48
FromStats_BitRate : 576000
FromStats_Duration : 01:52:13.952000000
FromStats_FrameCount : 210436
FromStats_StreamSize : 484844544

Audio #2
ID : 3
Format : AC-3
Format/Info : Audio Coding 3
Muxing mode : Header stripping
Codec ID : A_AC3
Duration : 1 h 52 min
Bit rate mode : Constant
Bit rate : 448 kb/s
Channel(s) : 6 channels
Channel positions : Front: L C R, Side: L R, LFE
Sampling rate : 48.0 kHz
Frame rate : 31.250 FPS (1536 SPF)
Bit depth : 16 bits
Compression mode : Lossy
Stream size : 360 MiB (8%)
Title : Thai AC3 5.1 at 448 Kbps
Language : Thai
Service kind : Complete Main
Default : No
Forced : No

Text #1
ID : 4
Format : VobSub
Muxing mode : zlib
Codec ID : S_VOBSUB
Codec ID/Info : Picture based subtitle format used on DVDs
Title : Thai 480p Under
Language : Thai
Default : Yes
Forced : No

Text #2
ID : 5
Format : VobSub
Muxing mode : zlib
Codec ID : S_VOBSUB
Codec ID/Info : Picture based subtitle format used on DVDs
Title : Thai 1080p
Language : Thai
Default : No
Forced : No

Text #3
ID : 6
Format : VobSub
Muxing mode : zlib
Codec ID : S_VOBSUB
Codec ID/Info : Picture based subtitle format used on DVDs
Title : Thai 1080p Under
Language : Thai
Default : No
Forced : No

Text #4
ID : 7
Format : VobSub
Muxing mode : zlib
Codec ID : S_VOBSUB
Codec ID/Info : Picture based subtitle format used on DVDs
Title : English 1080p
Language : English
Default : No
Forced : No

Text #5
ID : 8
Format : VobSub
Muxing mode : zlib
Codec ID : S_VOBSUB
Codec ID/Info : Picture based subtitle format used on DVDs
Title : English 1080p Under
Language : English
Default : No
Forced : No

Text #6
ID : 9
Format : UTF-8
Codec ID : S_TEXT/UTF8
Codec ID/Info : UTF-8 Plain Text
Title : English SRT
Language : English
Default : No
Forced : No

Menu
00:00:00.000 : en:00:00:00.000
00:05:49.641 : en:00:05:49.641
00:12:52.313 : en:00:12:52.313
00:16:10.761 : en:00:16:10.761
00:21:17.026 : en:00:21:17.026
00:26:27.795 : en:00:26:27.795
00:30:42.883 : en:00:30:42.883
00:34:11.549 : en:00:34:11.549
00:40:22.170 : en:00:40:22.170
00:47:33.309 : en:00:47:33.309
00:55:57.187 : en:00:55:57.187
01:02:27.452 : en:01:02:27.452
01:07:56.781 : en:01:07:56.781
01:12:20.920 : en:01:12:20.920
01:19:53.080 : en:01:19:53.080
01:24:03.038 : en:01:24:03.038
01:30:27.547 : en:01:30:27.547
01:37:03.985 : en:01:37:03.985
01:42:41.113 : en:01:42:41.113
01:45:35.162 : en:01:45:35.162

DOWNLOAD


PART01 |||| PART02 |||| PART03 |||| PART04 |||| PART05

PART01 |||| PART02 |||| PART03 |||| PART04 |||| PART05

PART01 |||| PART02 |||| PART03 |||| PART04 |||| PART05

PART01 |||| PART02 |||| PART03 |||| PART04 |||| PART05


8 Comments
  1. Lollipopju
    Lollipopju says

    โหลดไม่ได้ครับ

    1. Admin
      Admin says

      แก้ไขเรียบร้อยฮ๊ะ

  2. สมัคร says

    ขอลิ้งค์ใหม่หน่อยครับโหลดไม่ได้แล้ว

    1. Admin
      Admin says

      แก้ไขเรียบร้อยฮ๊ะ

  3. นัทธพงศ์ วิวิธสุรการ says

    ลิงค์เสียครับ

    1. Admin
      Admin says

      แก้ไขเรียบร้อยฮ๊ะ

  4. Kittithep Jeanwitayakul
    Kittithep Jeanwitayakul says

    รบกวนแก้ไห้หน่อยครับ

    1. Admin
      Admin says

      แก้ไขเรียบร้อยฮ๊ะ

Leave A Reply

Your email address will not be published.

%d bloggers like this: