[MINI Super-HQ] Headshot (2016) คนระห่ำ บู๊ลืมจำ [พากย์อินโดนีเซีย DTS] [Soundtrack บรรยายไทย + อังกฤษ] [เสียงอินโดนีเซีย + ซับไทย] [PANDAFILE]

0

Headshot (2016)

โหลดหนัง Headshot (2016) คนระห่ำ บู๊ลืมจำ

Headshot | March 3, 2017 (United States) Summary: Uwais plays a young man who washes ashore, an amnesiac with a serious head injury whose past comes back to haunt him shortly after being nursed back to health by a young doctor. Violence ens... Read all
Countries: IndonesiaLanguages: Indonesian, English

เรื่องย่อ Headshot (2016) คนระห่ำ บู๊ลืมจำ

อิชมาล ชายหนุ่มที่ฟื้นจากอาการโคม่าหลังจากประสบอุบัติเหตุที่ทำให้สมองกระทบกระเทือนกลายเป็นคนสมอเสื่อม จนเขาได้พบกับนางพยาบาลสาวนาม อาลิน จนทั้งคู่ต่างเป็นเพื่อนรักกัน แต่แล้วอิชมาลก็ค้นพบว่าตนกำลังถูกตามล่าโดยเหล่าอาชญากรและนักฆ่ากลุ่มนึง เขาต้องหาคำตอบว่าคนพวกนี้เป็นใครกันแน่ ในฉบับที่ใช้หมัดสู้แทนพูด

Complete name : [MINI Super-HQ]_Headshot.2016.1080p.BrRip.DTS.x264.Subthai.One2loadup.com.mkv
Format : Matroska
Format version : Version 4 / Version 2
File size : 3.83 GiB
Duration : 1 h 58 min
Overall bit rate : 4 637 kb/s
Movie name : [MINI Super-HQ]_Headshot.2016.1080p.BrRip.DTS.x264.Subthai.One2loadup.com
Encoded date : UTC 2010-02-22 21:41:31
Writing application : mkvmerge v5.9.0 (‘On The Loose’) built on Dec 9 2012 15:37:01
Writing library : libebml v1.3.0 + libmatroska v1.4.0

Video
ID : 1
Format : AVC
Format/Info : Advanced Video Codec
Format profile : [email protected]
Format settings, CABAC : Yes
Format settings, RefFrames : 4 frames
Codec ID : V_MPEG4/ISO/AVC
Duration : 1 h 58 min
Bit rate : 3 839 kb/s
Width : 1 920 pixels
Height : 800 pixels
Display aspect ratio : 2.40:1
Frame rate mode : Constant
Frame rate : 23.976 (24000/1001) FPS
Color space : YUV
Chroma subsampling : 4:2:0
Bit depth : 8 bits
Scan type : Progressive
Bits/(Pixel*Frame) : 0.104
Stream size : 3.13 GiB (82%)
Title : [MINI Super-HQ]_Headshot.2016.1080p.BrRip.DTS.x264.Subthai.One2loadup.com
Writing library : x264 core 130 r2273 b3065e6
Encoding settings : cabac=1 / ref=3 / deblock=1:0:0 / analyse=0x3:0x113 / me=umh / subme=11 / psy=1 / psy_rd=1.00:0.00 / mixed_ref=1 / me_range=48 / chroma_me=1 / trellis=2 / 8x8dct=1 / cqm=0 / deadzone=21,11 / fast_pskip=1 / chroma_qp_offset=-2 / threads=12 / lookahead_threads=1 / sliced_threads=0 / nr=0 / decimate=1 / interlaced=0 / bluray_compat=0 / constrained_intra=0 / bframes=3 / b_pyramid=2 / b_adapt=1 / b_bias=0 / direct=1 / weightb=1 / open_gop=0 / weightp=2 / keyint=240 / keyint_min=24 / scenecut=40 / intra_refresh=0 / rc_lookahead=40 / rc=2pass / mbtree=1 / bitrate=3839 / ratetol=1.0 / qcomp=0.60 / qpmin=0 / qpmax=69 / qpstep=4 / cplxblur=20.0 / qblur=0.5 / ip_ratio=1.40 / aq=1:1.00
Language : Indonesian
Default : Yes
Forced : No
Color range : Limited
Color primaries : BT.709
Transfer characteristics : BT.709
Matrix coefficients : BT.709

Audio
ID : 2
Format : DTS
Format/Info : Digital Theater Systems
Mode : 16
Format settings, Endianness : Big
Codec ID : A_DTS
Duration : 1 h 58 min
Bit rate mode : Constant
Bit rate : 755 kb/s
Channel(s) : 6 channels
Channel positions : Front: L C R, Side: L R, LFE
Sampling rate : 48.0 kHz
Frame rate : 93.750 FPS (512 SPF)
Bit depth : 24 bits
Compression mode : Lossy
Stream size : 638 MiB (16%)
Title : Indonesian DTS
Language : Indonesian
Default : Yes
Forced : No

Text #1
ID : 3
Format : VobSub
Codec ID : S_VOBSUB
Codec ID/Info : Picture based subtitle format used on DVDs
Title : Thai 480p
Language : Thai
Default : No
Forced : No

Text #2
ID : 4
Format : VobSub
Codec ID : S_VOBSUB
Codec ID/Info : Picture based subtitle format used on DVDs
Title : Thai 720p
Language : Thai
Default : No
Forced : No

Text #3
ID : 5
Format : VobSub
Codec ID : S_VOBSUB
Codec ID/Info : Picture based subtitle format used on DVDs
Title : Thai 1080p
Language : Thai
Default : Yes
Forced : Yes

Text #4
ID : 6
Format : VobSub
Codec ID : S_VOBSUB
Codec ID/Info : Picture based subtitle format used on DVDs
Title : Thai 1080p Yellow
Language : Thai
Default : No
Forced : No

Text #5
ID : 7
Format : VobSub
Codec ID : S_VOBSUB
Codec ID/Info : Picture based subtitle format used on DVDs
Title : Thai 1080p Out
Language : Thai
Default : No
Forced : No

Text #6
ID : 8
Format : VobSub
Codec ID : S_VOBSUB
Codec ID/Info : Picture based subtitle format used on DVDs
Title : Thai 1080p BIG
Language : Thai
Default : No
Forced : No

Text #7
ID : 9
Format : PGS
Codec ID : S_HDMV/PGS
Codec ID/Info : Picture based subtitle format used on BDs/HD-DVDs
Title : Thai PGS
Language : Thai
Default : No
Forced : No

Text #8
ID : 10
Format : PGS
Codec ID : S_HDMV/PGS
Codec ID/Info : Picture based subtitle format used on BDs/HD-DVDs
Title : Thai PGS Out
Language : Thai
Default : No
Forced : No

Text #9
ID : 11
Format : PGS
Codec ID : S_HDMV/PGS
Codec ID/Info : Picture based subtitle format used on BDs/HD-DVDs
Title : English
Language : English
Default : No
Forced : No

Menu
00:00:00.000 : en:Chapter 1
00:09:48.004 : en:Chapter 2
00:25:51.466 : en:Chapter 3
00:39:57.019 : en:Chapter 4
00:50:40.746 : en:Chapter 5
01:06:17.890 : en:Chapter 6
01:20:56.977 : en:Chapter 7
01:38:32.364 : en:Chapter 8
01:55:20.330 : en:Chapter 9

DOWNLOAD


PART01 |||| PART02 |||| PART03 |||| PART04

PART01 |||| PART02 |||| PART03 |||| PART04

PART01 |||| PART02 |||| PART03 |||| PART04

PART01 |||| PART02 |||| PART03 |||| PART04

PART01 |||| PART02 |||| PART03 |||| PART04


Leave A Reply

อีเมล์ของคุณจะไม่แสดงให้เห็น Your email address will not be published.

%d bloggers like this: