[MINI-HD HQ] Viral (2016) ไวรัสหนอนซอมบี้ถล่มโลก [1080p] [พากย์อังกฤษ DTS] [Soundtrack บรรยายไทย + อังกฤษ] [เสียงอังกฤษ + ซับไทย] [PANDAFILE]

2

โหลดหนัง Viral (2016) ไวรัสหนอนซอมบี้ถล่มโลก

Viral | July 29, 2016 (United States) Summary:
Countries: United StatesLanguages: English

เรื่องย่อ Viral (2016) ไวรัสหนอนซอมบี้ถล่มโลก

เรื่องราวของไวรัสปรสิตลึกลับที่แพร่กระจายไปทั่วย่านชานเมืองอย่างรวดเร็ว จนกระทั่งเหล่าผู้รอดชีวิตต้องหาทางดิ้นรนจากการติดเชื้อให้ได้ นำแสดงโดย อนาลีห์ ทิปตัน

Complete name : [MINI-HD HQ]_Viral.2016.MINI-HD.Bluray.DTS.1080p.One2loadup.com.mkv
Format : Matroska
Format version : Version 4 / Version 2
File size : 3.64 GiB
Duration : 1 h 25 min
Overall bit rate : 6 084 kb/s
Movie name : FB : บลูเรย์แสนดี
Encoded date : UTC 2017-08-30 09:33:06
Writing application : mkvmerge v9.9.0 (‘Pick Up’) 64bit
Writing library : libebml v1.3.4 + libmatroska v1.4.5

Video
ID : 1
Format : AVC
Format/Info : Advanced Video Codec
Format profile : [email protected]
Format settings, CABAC : Yes
Format settings, RefFrames : 4 frames
Codec ID : V_MPEG4/ISO/AVC
Duration : 1 h 25 min
Bit rate : 4 000 kb/s
Width : 1 920 pixels
Height : 804 pixels
Display aspect ratio : 2.40:1
Frame rate mode : Constant
Frame rate : 24.000 FPS
Color space : YUV
Chroma subsampling : 4:2:0
Bit depth : 8 bits
Scan type : Progressive
Bits/(Pixel*Frame) : 0.108
Stream size : 2.33 GiB (64%)
Writing library : x264 core 142 r2479 dd79a61
Encoding settings : cabac=1 / ref=1 / deblock=1:0:0 / analyse=0x3:0x113 / me=hex / subme=2 / psy=1 / psy_rd=1.00:0.00 / mixed_ref=0 / me_range=16 / chroma_me=1 / trellis=0 / 8x8dct=1 / cqm=0 / deadzone=21,11 / fast_pskip=1 / chroma_qp_offset=0 / threads=6 / lookahead_threads=2 / sliced_threads=0 / nr=0 / decimate=1 / interlaced=0 / bluray_compat=0 / constrained_intra=0 / bframes=3 / b_pyramid=2 / b_adapt=1 / b_bias=0 / direct=1 / weightb=1 / open_gop=0 / weightp=1 / keyint=240 / keyint_min=24 / scenecut=40 / intra_refresh=0 / rc_lookahead=10 / rc=abr / mbtree=1 / bitrate=4000 / ratetol=1.0 / qcomp=0.60 / qpmin=0 / qpmax=69 / qpstep=4 / vbv_maxrate=62500 / vbv_bufsize=78125 / nal_hrd=none / filler=0 / ip_ratio=1.40 / aq=1:1.00
Default : Yes
Forced : No
Color range : Limited
Color primaries : BT.709
Transfer characteristics : BT.709
Matrix coefficients : BT.709

Audio #1
ID : 2
Format : DTS
Format/Info : Digital Theater Systems
Mode : 16
Format settings, Endianness : Big
Codec ID : A_DTS
Duration : 1 h 25 min
Bit rate mode : Constant
Bit rate : 1 509 kb/s
Channel(s) : 6 channels
Channel positions : Front: L C R, Side: L R, LFE
Sampling rate : 48.0 kHz
Frame rate : 93.750 FPS (512 SPF)
Bit depth : 24 bits
Compression mode : Lossy
Delay relative to video : -83 ms
Stream size : 924 MiB (25%)
Title : Surround 5.1
Language : English
Default : No
Forced : No

Audio #2
ID : 7
Format : AC-3
Format/Info : Audio Coding 3
Format settings, Endianness : Big
Codec ID : A_AC3
Duration : 1 h 25 min
Bit rate mode : Constant
Bit rate : 640 kb/s
Channel(s) : 6 channels
Channel positions : Front: L C R, Side: L R, LFE
Sampling rate : 48.0 kHz
Frame rate : 31.250 FPS (1536 SPF)
Bit depth : 16 bits
Compression mode : Lossy
Delay relative to video : -83 ms
Stream size : 392 MiB (11%)
Title : Dolby Digital 5.1
Language : English
Service kind : Complete Main
Default : Yes
Forced : No

Text #1
ID : 3
Format : PGS
Muxing mode : zlib
Codec ID : S_HDMV/PGS
Codec ID/Info : Picture based subtitle format used on BDs/HD-DVDs
Duration : 1 h 20 min
Bit rate : 14.0 kb/s
Count of elements : 1438
Stream size : 8.08 MiB (0%)
Title : Bluray Master
Language : English
Default : No
Forced : No

Text #2
ID : 4
Format : PGS
Muxing mode : zlib
Codec ID : S_HDMV/PGS
Codec ID/Info : Picture based subtitle format used on BDs/HD-DVDs
Duration : 1 h 20 min
Bit rate : 14.2 kb/s
Count of elements : 1458
Stream size : 8.23 MiB (0%)
Title : Bluray Master
Language : Thai
Default : No
Forced : No

Text #3
ID : 5
Format : VobSub
Muxing mode : zlib
Codec ID : S_VOBSUB
Codec ID/Info : Picture based subtitle format used on DVDs
Duration : 1 h 20 min
Bit rate : 4 582 b/s
Count of elements : 727
Stream size : 2.65 MiB (0%)
Title : 1080p
Language : Thai
Default : Yes
Forced : No

Text #4
ID : 6
Format : VobSub
Muxing mode : zlib
Codec ID : S_VOBSUB
Codec ID/Info : Picture based subtitle format used on DVDs
Duration : 1 h 20 min
Bit rate : 1 530 b/s
Count of elements : 727
Stream size : 907 KiB (0%)
Title : 480p
Language : Thai
Default : No
Forced : No

Menu #1
00:00:00.000 : :Chapter 1
00:01:48.916 : :Chapter 2
00:07:45.333 : :Chapter 3
00:12:19.916 : :Chapter 4
00:16:31.958 : :Chapter 5
00:20:56.916 : :Chapter 6
00:25:02.916 : :Chapter 7
00:28:25.583 : :Chapter 8
00:33:03.166 : :Chapter 9
00:37:02.083 : :Chapter 10
00:42:29.458 : :Chapter 11
00:47:55.666 : :Chapter 12
00:54:00.791 : :Chapter 13
01:00:09.166 : :Chapter 14
01:05:32.583 : :Chapter 15
01:10:52.541 : :Chapter 16
01:16:38.708 : :Chapter 17
01:21:46.791 : :Chapter 18

Menu #2
00:00:00.000 : en:Chapter 01
00:01:48.791 : en:Chapter 02
00:07:45.250 : en:Chapter 03
00:12:19.791 : en:Chapter 04
00:16:31.875 : en:Chapter 05
00:20:56.708 : en:Chapter 06
00:25:02.708 : en:Chapter 07
00:28:25.500 : en:Chapter 08
00:33:03.041 : en:Chapter 09
00:37:02.000 : en:Chapter 10
00:42:29.375 : en:Chapter 11
00:47:55.458 : en:Chapter 12
00:54:00.666 : en:Chapter 13
01:00:09.041 : en:Chapter 14
01:05:32.500 : en:Chapter 15
01:10:52.416 : en:Chapter 16
01:16:38.625 : en:Chapter 17
01:21:46.666 : en:Chapter 18

DOWNLOAD


PART01 |||| PART02 |||| PART03 |||| PART04

PART01 |||| PART02 |||| PART03 |||| PART04

PART01 |||| PART02 |||| PART03 |||| PART04

PART01 |||| PART02 |||| PART03 |||| PART04


2 Comments
  1. Theera Seetasut
    Theera Seetasut says

    ลิ้งเสียครับ

    1. Admin
      Admin says

      แก้ไขเรียบร้อยฮ๊ะ

Leave A Reply

อีเมล์ของคุณจะไม่แสดงให้เห็น Your email address will not be published.

%d bloggers like this: