[MINI Super-HQ] Watchmen (2009) ศึกซูเปอร์ฮีโร่พันธุ์มหากาฬ [1080p] [พากย์ไทย 5.1 + เสียงอังกฤษ DTS] [บรรยายไทย + อังกฤษ] [เสียงไทย + ซับไทย] [PANDAFILE]

0

โหลดหนัง Watchmen (2009) ศึกซูเปอร์ฮีโร่พันธุ์มหากาฬ

Watchmen (2009) 2h 42min | Action, Drama, Mystery | 6 March 2009 (USA) Summary: In 1985 where former superheroes exist, the murder of a colleague sends active vigilante Rorschach into his own sprawling investigation, uncovering something that could completely change the course of history as we know it.
Countries: USALanguages: English

เรื่องย่อ Watchmen (2009) ศึกซูเปอร์ฮีโร่พันธุ์มหากาฬ

ภาพยนตร์ผจญภัยลึกลับหลากหลายมิติและซับซ้อนอย่าง “Watchmen” วางเรื่องราวให้เกิดขึ้นในอเมริกาปี 1985 ที่ซึ่งบรรดาซูเปอร์ฮีโร่ที่มีชุดประจำตัวทั้งหลาย ถือเป็นส่วนหนึ่งของสังคมประจำวัน และนาฬิกาพิพากษาโลกซึ่งเติมเชื้อไฟให้กับความตึงเตรียดของอเมริกากับสหภาพโซเวียต ยิ่งเดินหน้าเข้าใกล้เวลาเที่ยงคืนมากขึ้นทุกขณะเมื่อหนึ่งในเพื่อนร่วมงานเก่าของเขาถูกฆ่าตาย รอร์แชค ฮีโร่สวมหน้ากากผู้ผดุงความยุติธรรมแต่บัดนี้ได้กลายเป็นพวกนอกกฎหมายไปแล้วต้องการเปิดโปงแผนการร้ายที่มีเป้าหมายเพื่อสังหารและสร้างความเสื่อมเสียให้กับบรรดาซูเปอร์ฮีโร่ทั้งในอดีตและปัจจุบันทุกนายเมื่อเขากลับไปติดต่อกับกลุ่มอดีตนักต่อสู้อาชญากรรม ซึ่งเป็นกลุ่มซูเปอร์ฮีโร่ที่เกษียณตัวเองและแยกย้าย กระจัดกระจายกันไปและเป็นคนกลุ่มเดียวที่มีพลังวิเศษ ที่แท้จริง รอร์แชคได้พบแผนสมรู้ร่วมคิดที่เชื่อมโยงถึงอดีตที่พวกเขาทุกคนเคยมีร่วมกันและผลพวงอันเป็นหายนะที่จะส่ง ผลต่ออนาคตภารกิจของพวก เขาคือการดูแลคุ้มครองมนุษยชาติ…แต่ใครกันล่ะที่จะคอยระวังภัยให้กลุ่มวอทช์เมน!!!

Complete name : [MINI Super-HQ]_Watchmen.2009.1080p.BrRip.DTS.x264.One2loadup.com.mkv
Format : Matroska
Format version : Version 4
File size : 4.44 GiB
Duration : 2 h 42 min
Overall bit rate : 3 922 kb/s
Movie name : [MINI Super-HQ]_Watchmen.2009.1080p.BrRip.DTS.x264.One2loadup.com
Encoded date : UTC 2020-12-01 20:12:42
Writing application : mkvmerge v51.0.0 (‘I Wish’) 64-bit
Writing library : libebml v1.4.0 + libmatroska v1.6.2
Cover : Yes
Attachments : cover_land.png / cover.png

Video
ID : 1
Format : AVC
Format/Info : Advanced Video Codec
Format profile : [email protected]
Format settings : CABAC / 5 Ref Frames
Format settings, CABAC : Yes
Format settings, ReFrames : 5 frames
Codec ID : V_MPEG4/ISO/AVC
Duration : 2 h 42 min
Bit rate : 2 493 kb/s
Width : 1 920 pixels
Height : 800 pixels
Display aspect ratio : 2.40:1
Frame rate mode : Constant
Frame rate : 23.976 (24000/1001) FPS
Color space : YUV
Chroma subsampling : 4:2:0
Bit depth : 8 bits
Scan type : Progressive
Bits/(Pixel*Frame) : 0.068
Stream size : 2.82 GiB (64%)
Title : [MINI Super-HQ]_Watchmen.2009.1080p.BrRip.DTS.x264.One2loadup.com
Writing library : x264 core 146 r2538 121396c
Encoding settings : cabac=1 / ref=5 / deblock=1:-3:-3 / analyse=0x3:0x113 / me=umh / subme=11 / psy=1 / psy_rd=1.00:0.15 / mixed_ref=1 / me_range=64 / chroma_me=1 / trellis=2 / 8x8dct=1 / cqm=0 / deadzone=21,11 / fast_pskip=0 / chroma_qp_offset=-3 / threads=6 / lookahead_threads=1 / sliced_threads=0 / nr=0 / decimate=1 / interlaced=0 / bluray_compat=0 / constrained_intra=0 / bframes=5 / b_pyramid=2 / b_adapt=1 / b_bias=0 / direct=3 / weightb=1 / open_gop=0 / weightp=2 / keyint=250 / keyint_min=23 / scenecut=40 / intra_refresh=0 / rc_lookahead=100 / rc=2pass / mbtree=1 / bitrate=2493 / ratetol=1.0 / qcomp=0.60 / qpmin=0 / qpmax=69 / qpstep=4 / cplxblur=20.0 / qblur=0.5 / vbv_maxrate=99999 / vbv_bufsize=99999 / nal_hrd=none / filler=0 / ip_ratio=1.40 / aq=1:1.00
Language : English
Default : Yes
Forced : No

Audio #1
ID : 2
Format : AC-3
Format/Info : Audio Coding 3
Commercial name : Dolby Digital
Codec ID : A_AC3
Duration : 2 h 42 min
Bit rate mode : Constant
Bit rate : 640 kb/s
Channel(s) : 6 channels
Channel layout : L R C LFE Ls Rs
Sampling rate : 48.0 kHz
Frame rate : 31.250 FPS (1536 SPF)
Bit depth : 16 bits
Compression mode : Lossy
Stream size : 742 MiB (16%)
Title : AC3
Language : Thai
Service kind : Complete Main
Default : Yes
Forced : Yes

Audio #2
ID : 3
Format : DTS
Format/Info : Digital Theater Systems
Codec ID : A_DTS
Duration : 2 h 42 min
Bit rate mode : Constant
Bit rate : 755 kb/s
Channel(s) : 6 channels
Channel layout : C L R Ls Rs LFE
Sampling rate : 48.0 kHz
Frame rate : 93.750 FPS (512 SPF)
Bit depth : 24 bits
Compression mode : Lossy
Stream size : 875 MiB (19%)
Title : English DTS
Language : English
Default : No
Forced : No

Text #1
ID : 4
Format : VobSub
Muxing mode : zlib
Codec ID : S_VOBSUB
Codec ID/Info : Picture based subtitle format used on DVDs
Duration : 2 h 41 min
Bit rate : 5 799 b/s
Count of elements : 1639
Stream size : 6.71 MiB (0%)
Title : 1080P
Language : Thai
Default : Yes
Forced : Yes

Text #2
ID : 5
Format : VobSub
Muxing mode : zlib
Codec ID : S_VOBSUB
Codec ID/Info : Picture based subtitle format used on DVDs
Duration : 2 h 41 min
Bit rate : 5 799 b/s
Count of elements : 1639
Stream size : 6.71 MiB (0%)
Title : 1080P YELLOW
Language : Thai
Default : No
Forced : No

Text #3
ID : 6
Format : VobSub
Muxing mode : zlib
Codec ID : S_VOBSUB
Codec ID/Info : Picture based subtitle format used on DVDs
Duration : 2 h 41 min
Bit rate : 5 799 b/s
Count of elements : 1639
Stream size : 6.71 MiB (0%)
Title : 1080P UNDER
Language : Thai
Default : No
Forced : No

Text #4
ID : 7
Format : VobSub
Muxing mode : zlib
Codec ID : S_VOBSUB
Codec ID/Info : Picture based subtitle format used on DVDs
Duration : 2 h 41 min
Bit rate : 1 712 b/s
Count of elements : 1639
Stream size : 1.98 MiB (0%)
Title : 480P
Language : Thai
Default : No
Forced : No

Text #5
ID : 8
Format : VobSub
Muxing mode : zlib
Codec ID : S_VOBSUB
Codec ID/Info : Picture based subtitle format used on DVDs
Duration : 2 h 34 min
Bit rate : 8 195 b/s
Count of elements : 1629
Stream size : 9.08 MiB (0%)
Title : 1080P
Language : English
Default : No
Forced : No

Text #6
ID : 9
Format : PGS
Muxing mode : zlib
Codec ID : S_HDMV/PGS
Codec ID/Info : Picture based subtitle format used on BDs/HD-DVDs
Duration : 2 h 41 min
Bit rate : 23.8 kb/s
Count of elements : 3278
Stream size : 27.6 MiB (1%)
Title : Thai PGS BluRay Master
Language : Thai
Default : No
Forced : No

Text #7
ID : 10
Format : PGS
Muxing mode : zlib
Codec ID : S_HDMV/PGS
Codec ID/Info : Picture based subtitle format used on BDs/HD-DVDs
Duration : 2 h 41 min
Bit rate : 23.8 kb/s
Count of elements : 3278
Stream size : 27.6 MiB (1%)
Title : Thai PGS BluRay Master [Out]
Language : Thai
Default : No
Forced : No

DOWNLOAD


PART01 |||| PART02 |||| PART03 |||| PART04 |||| PART05

PART01 |||| PART02 |||| PART03 |||| PART04 |||| PART05

PART01 |||| PART02 |||| PART03 |||| PART04 |||| PART05

PART01 |||| PART02 |||| PART03 |||| PART04 |||| PART05

PART01 |||| PART02 |||| PART03 |||| PART04 |||| PART05



แจ้งหนังเสีย หรือโหลดไม่ได้ ทั้งลิ้งฟรีและ vip สามารถกดที่รูปด้านบนนี้ได้เลย

: Disable Comments
%d bloggers like this: