[MINI Super-HQ] Pirates of the Caribbean: Dead Man’s Chest (2006) สงครามปีศาจโจรสลัดสยองโลก ภาค 2 [1080P] [พากย์ไทย 5.1 + อังกฤษ 5.1] [บรรยายไทย + อังกฤษ] [เสียงไทย + ซับไทย] [OPENLOAD]

3

โหลดหนัง Pirates of the Caribbean: Dead Man’s Chest (2006) สงครามปีศาจโจรสลัดสยองโลก ภาค 2 

Pirates of the Caribbean: Dead Man's Chest (2006) 2h 31min | Action, Adventure, Fantasy | 7 July 2006 (USA) Summary: Jack Sparrow races to recover the heart of Davy Jones to avoid enslaving his soul to Jones' service, as other friends and foes seek the heart for their own agenda as well.
Countries: USALanguages: English, Turkish, Greek, Mandarin, French

เรื่องย่อ Pirates of the Caribbean: Dead Man’s Chest (2006) สงครามปีศาจโจรสลัดสยองโลก ภาค 2

กัปตันแจ็ค สแปร์โรว์ (จอห์นนี่ เด็ปป์) ผู้มีนิสัยแปลกพิลึก เขาอาจเป็นโจรสลัดที่เก่งกาจที่สุดหรือห่วยแตกที่สุด ในประวัติศาสตร์ก็ได้ เมื่อเขาต้องเข้าไปพัวพันกับเรื่องลี้ลับพิศวงเหนือธรรมชาติอีกครั้งหนึ่ง แม้ว่าคำสาปแห่งเรือแบล็คเพิร์ลจะมลายไปแล้ว ภัยคุกคามที่น่าสะพรึงกลัวยิ่งกว่ากลับคืบคลานเข้ามา ใกล้ กัปตันแจ็ค และลูกเรือตัวแสบของเขา เหตุเกิดจากการที่ กัปตันแจ็ค ของเราติดหนี้เลือดที่ต้องชดใช้ให้กับ เดวี โจนส์ (บิลล์ ไนห์) ผู้ทรงอิทธิพลเหนือน่านสมุทร กัปตันเรือฟลายอิ้ง ดัทช์แมน ซึ่งเหนือกว่าเรือทุกลำในเรื่องของความเร็วและความเงียบกริบ ถ้าหาก แจ็ค ไม่อาจคิดหาทางเอาตัวรอดจากสัญญาทาสนี้ได้ล่ะก็ เขาจะถูกสาปให้ต้องใช้ชีวิตเป็นลูกสมุนของโจนส์ไปชั่วกัปชั่วกัลป์ เรื่องนี้เองได้ขัดขวางแผนแต่งงานระหว่าง วิลล์ เทิร์นเนอร์ (ออร์แลนโด้ บลูม) และ เอลิซาเบธ สวอนน์ (เคียรา ไนต์ลี่ย์) ผู้ซึ่งพบว่าตัวเองต้องเข้าไปพัวพันกับเรื่องราวโชคร้ายของแจ็คอีกครั้งหนึ่ง ซึ่งนำไปสู่การประจันหน้ากับสัตว์ร้ายแห่งท้องทะเล ชาวเกาะที่ไม่เป็นมิตร นักทำนาย เทีย ดัลมา (นาโอมี แฮร์ริส) หรือกระทั่งการปรากฏตัวขึ้นอีกครั้งอย่างน่าฉงนของ บู๊ทสแตร็ป บิลล์ (สเตลแลน สการ์สการ์ด) พ่อที่หายสาบสูญไปนานของ วิลล์ ในขณะเดียวกัน นักล่าโจรสลัดผู้ไร้ปรานี ลอร์ด คัทเลอร์ เบ็คเก็ตต์ (ทอม ฮอลแลนเดอร์) แห่งบริษัทอีสต์ อินเดีย เทรดดิ้ง คัมปะนี ก็หมายมั่นปั้นมือที่จะคว้าหีบวิญญาณตามตำนานมาไว้ใน ครอบครองให้ได้ เพื่อให้ตนเองมีอำนาจเหนือ เดวี โจนส์ และกำจัดโจรสลัดหมดสิ้น

Complete name : [MINI Super-HQ]_2.Pirates.of.the.Caribbean.Dead.Man’s.Chest.2006.1080p.BrRip.x264.AC3.One2load2up.com.mkv
Format : Matroska
Format version : Version 4 / Version 2
File size : 3.39 GiB
Duration : 2 h 30 min
Overall bit rate : 3 217 kb/s
Movie name : [MINI Super-HQ]_2.Pirates.of.the.Caribbean.Dead.Man’s.Chest.2006.1080p.BrRip.x264.AC3.One2load2up.com
Encoded date : UTC 2014-07-28 07:17:29
Writing application : mkvmerge v6.6.0 (‘The Edge Of The In Between’) built on Dec 1 2013 17:55:00
Writing library : libebml v1.3.0 + libmatroska v1.4.1

Video
ID : 1
Format : AVC
Format/Info : Advanced Video Codec
Format profile : [email protected]
Format settings : CABAC / 5 Ref Frames
Format settings, CABAC : Yes
Format settings, ReFrames : 5 frames
Codec ID : V_MPEG4/ISO/AVC
Duration : 2 h 30 min
Bit rate : 1 873 kb/s
Nominal bit rate : 2 020 kb/s
Width : 1 920 pixels
Height : 800 pixels
Display aspect ratio : 2.40:1
Frame rate mode : Constant
Frame rate : 23.976 (24000/1001) FPS
Color space : YUV
Chroma subsampling : 4:2:0
Bit depth : 8 bits
Scan type : Progressive
Bits/(Pixel*Frame) : 0.051
Stream size : 1.97 GiB (58%)
Title : [MINI Super-HQ]_2.Pirates.of.the.Caribbean.Dead.Man’s.Chest.2006.1080p.BrRip.x264.AC3.One2load2up.com
Writing library : x264 core 129 r2245 bc13772
Encoding settings : cabac=1 / ref=5 / deblock=1:-1:-1 / analyse=0x3:0x133 / me=umh / subme=9 / psy=1 / psy_rd=1.00:0.15 / mixed_ref=1 / me_range=16 / chroma_me=1 / trellis=2 / 8x8dct=1 / cqm=0 / deadzone=21,11 / fast_pskip=1 / chroma_qp_offset=-3 / threads=12 / lookahead_threads=2 / sliced_threads=0 / nr=0 / decimate=1 / interlaced=0 / bluray_compat=0 / constrained_intra=0 / bframes=3 / b_pyramid=2 / b_adapt=2 / b_bias=0 / direct=3 / weightb=1 / open_gop=0 / weightp=2 / keyint=240 / keyint_min=23 / scenecut=40 / intra_refresh=0 / rc_lookahead=60 / rc=2pass / mbtree=1 / bitrate=2020 / ratetol=1.0 / qcomp=0.60 / qpmin=10 / qpmax=51 / qpstep=4 / cplxblur=20.0 / qblur=0.5 / ip_ratio=1.40 / aq=1:1.00
Default : Yes
Forced : No

Audio #1
ID : 2
Format : AC-3
Format/Info : Audio Coding 3
Codec ID : A_AC3
Duration : 2 h 30 min
Bit rate mode : Constant
Bit rate : 640 kb/s
Channel(s) : 6 channels
Channel positions : Front: L C R, Side: L R, LFE
Sampling rate : 48.0 kHz
Frame rate : 31.250 FPS (1536 SPF)
Bit depth : 16 bits
Compression mode : Lossy
Delay relative to video : 1 s 0 ms
Stream size : 690 MiB (20%)
Title : Thai AC3 640kbps
Language : Thai
Service kind : Complete Main
Default : Yes
Forced : Yes

Audio #2
ID : 3
Format : AC-3
Format/Info : Audio Coding 3
Codec ID : A_AC3
Duration : 2 h 30 min
Bit rate mode : Constant
Bit rate : 640 kb/s
Channel(s) : 6 channels
Channel positions : Front: L C R, Side: L R, LFE
Sampling rate : 48.0 kHz
Frame rate : 31.250 FPS (1536 SPF)
Bit depth : 16 bits
Compression mode : Lossy
Delay relative to video : 1 s 0 ms
Stream size : 690 MiB (20%)
Title : English AC3 640kbps
Language : English
Service kind : Complete Main
Default : No
Forced : No

Text #1
ID : 4
Format : VobSub
Muxing mode : zlib
Codec ID : S_VOBSUB
Codec ID/Info : Picture based subtitle format used on DVDs
Title : Thai From DVD Master
Language : Thai
Default : No
Forced : No

Text #2
ID : 5
Format : VobSub
Muxing mode : zlib
Codec ID : S_VOBSUB
Codec ID/Info : Picture based subtitle format used on DVDs
Title : Thai 480p
Language : Thai
Default : Yes
Forced : Yes

Text #3
ID : 6
Format : VobSub
Muxing mode : zlib
Codec ID : S_VOBSUB
Codec ID/Info : Picture based subtitle format used on DVDs
Title : Thai 1080p
Language : Thai
Default : No
Forced : No

Text #4
ID : 7
Format : VobSub
Muxing mode : zlib
Codec ID : S_VOBSUB
Codec ID/Info : Picture based subtitle format used on DVDs
Title : Thai 1080p
Language : Thai
Default : No
Forced : No

Text #5
ID : 8
Format : PGS
Muxing mode : zlib
Codec ID : S_HDMV/PGS
Codec ID/Info : Picture based subtitle format used on BDs/HD-DVDs
Title : Thai PGS
Language : Thai
Default : No
Forced : No

Text #6
ID : 9
Format : VobSub
Muxing mode : zlib
Codec ID : S_VOBSUB
Codec ID/Info : Picture based subtitle format used on DVDs
Title : English 480p
Language : English
Default : No
Forced : No

Text #7
ID : 10
Format : VobSub
Muxing mode : zlib
Codec ID : S_VOBSUB
Codec ID/Info : Picture based subtitle format used on DVDs
Title : English 1080p
Language : English
Default : No
Forced : No

Text #8
ID : 11
Format : VobSub
Muxing mode : zlib
Codec ID : S_VOBSUB
Codec ID/Info : Picture based subtitle format used on DVDs
Title : English 1080p
Language : English
Default : No
Forced : No

Text #9
ID : 12
Format : PGS
Muxing mode : zlib
Codec ID : S_HDMV/PGS
Codec ID/Info : Picture based subtitle format used on BDs/HD-DVDs
Title : English PGS
Language : English
Default : No
Forced : No

Text #10
ID : 13
Format : UTF-8
Codec ID : S_TEXT/UTF8
Codec ID/Info : UTF-8 Plain Text
Title : English SRT
Language : English
Default : No
Forced : No

DOWNLOAD


PART01 |||| PART02 |||| PART03 |||| PART04

PART01 |||| PART02 |||| PART03 |||| PART04

PART01 |||| PART02 |||| PART03 |||| PART04

PART01 |||| PART02 |||| PART03 |||| PART04


3 Comments
  1. boyd says

    โหลดไม่ได้แล้วครับบผม

    1. Admin
      Admin says

      แก้ไขเรียบร้อยฮ๊ะ

      1. boyd says

        ขอบคุณนะครับ

Leave A Reply

Your email address will not be published.

%d bloggers like this: