[MINI Super-HQ] Pirates of the Caribbean: At World’s End (2007) ผจญภัยล่าโจรสลัดสุดขอบโลก ภาค 3 [1080P] [พากย์ไทย 5.1 + อังกฤษ 5.1] [บรรยายไทย + อังกฤษ] [เสียงไทย + ซับไทย] [OPENLOAD]

3

Pirates of the Caribbean: At World's End (2007) ผจญภัยล่าโจรสลัดสุดขอบโลก ภาค 3

โหลดหนัง Pirates of the Caribbean: At World’s End (2007) ผจญภัยล่าโจรสลัดสุดขอบโลก ภาค 3

Pirates of the Caribbean: At World's End (2007) 2h 49min | Action, Adventure, Fantasy | 23 May 2007 (Netherlands) Summary: Captain Barbossa, Will Turner and Elizabeth Swann must sail off the edge of the map, navigate treachery and betrayal, find Jack Sparrow, and make their final alliances for one last decisive battle.
Countries: USALanguages: English

เรื่องย่อ Pirates of the Caribbean: At World’s End (2007) ผจญภัยล่าโจรสลัดสุดขอบโลก ภาค 3

ยุคมืดเริ่มคลืบคลานเข้ามาเมื่อกาลเวลาของเหล่าโจรสลัดใกล้ถึงจุดสิ้นสุด ลอร์ด คัทเลอร์ เบ็คเก็ตต์ (ทอม ฮอลแลนเดอร์) แห่งบริษัทอีสต์ อินเดีย เทรดดิ้ง คัมปะนี ได้เข้าควบคุม ฟลายอิ้ง ดัทช์แมน เรือโจรสลัดผีอันน่าสะพรึงและกัปตันปีศาจประจำเรือ เดวี่ โจนส์ (บิลล์ ไนห์) ล่องทะเลเจ็ดคาบสมุทร เพื่อกำจัดเหล่าโจรสลัด ฆ่า และทำลายเรือ อย่างไร้ความปราณี ภายใต้คำสั่งของผู้บังคับการนอร์ริงตัน (แจ็ค ดาเวนพอร์ต) วิลล์ เทิร์นเนอร์ (ออร์แลนโด้ บลูม) อลิซาเบธ สวอร์น (เคียร่า ไนต์ลี่ย์) และ กัปตันบาร์บอสซ่า (เจฟฟรี่ย์ รัช) ได้เริ่มออกเดินทางสู่ภารกิจสุดอันตรายเพื่อรวบรวมเห ล่าโจรสลัด ซึ่งเป็นความหวังเดียวของพวกเขาเพื่อที่จะเอาชนะ เบ็คเก็ตต์ เรือฟลายอิ้ง ดัทช์แมน และ เหล่ากองทัพเรือของเขา แต่หนึ่งในสมาชิกของโจรสลัดได้หายตัวไป นั่นก็คือ กัปตันแจ็ค สแปร์โรว์ (จอห์นนี่ เด็ปป์) สิ่งแรกที่เหล่าผู้กล้าทั้งหลาย รวมทั้ง เทีย ดัลม่า (นาโอมี่ แฮร์ริส) พินเทล (ลี อาเรนเบิร์ก) และ ราเก็ตตี้ (แม็คเคนซี ครู้ก) จะต้องทำคือออกเดินทางไปสิงค์โปร์ที่แสนอันตราย และเผชิญหน้ากับกัปตันแห่งคาบสมุทรจีน กัปตันเซา เฟ็ง (โจวเหวินฟะ) เพื่อที่จะได้เรือที่สามารถพาพวกเขาไปที่สุดขอบโลกเพ ื่อช่วยเหลือ แจ็ค สแปร์โรว์ กัปตันแจ็คถูกช่วยออกมาได้ ถึงแม้การถูกจองจำจะทำให้เขาเสียสติมากไปกว่าเดิม แต่เขาก็ตกลงที่จะช่วย เขาล่องเรือแบล็คเพิร์ล ออกจากดินแดนแห่งความตาย ถึงแม้ว่าจะรวบรวมเหล่าโจรสลัดได้ ก็ยังไม่เพียงพอที่จะต่อกรกับกองกำลังของ เบ็คเก็ตต์ และ เดวี่ โจนส์ ถ้าไม่สามารถปลดปล่อย คาลิปโช่ เทพธิดาแห่งท้องทะเลผู้แปรปรวน เพื่อที่จะหว่านล้อมให้มาร่วมมือกันกำจัดภัยแห่งโจรสลัดในครั้งนี้ได้

Complete name : [MINI Super-HQ]_3.Pirates.of.the.Caribbean.At.Worlds.End.2007.1080p.BrRip.x264.AC3.One2load2up.com.mkv
Format : Matroska
Format version : Version 4 / Version 2
File size : 3.94 GiB
Duration : 2 h 48 min
Overall bit rate : 3 350 kb/s
Movie name : [MINI Super-HQ]_3.Pirates.of.the.Caribbean.At.Worlds.End.2007.1080p.BrRip.x264.AC3.One2load2up.com
Encoded date : UTC 2014-07-28 07:50:47
Writing application : mkvmerge v6.6.0 (‘The Edge Of The In Between’) built on Dec 1 2013 17:55:00
Writing library : libebml v1.3.0 + libmatroska v1.4.1

Video
ID : 1
Format : AVC
Format/Info : Advanced Video Codec
Format profile : [email protected]
Format settings : CABAC / 5 Ref Frames
Format settings, CABAC : Yes
Format settings, ReFrames : 5 frames
Codec ID : V_MPEG4/ISO/AVC
Duration : 2 h 48 min
Bit rate : 2 003 kb/s
Nominal bit rate : 2 147 kb/s
Width : 1 920 pixels
Height : 800 pixels
Display aspect ratio : 2.40:1
Frame rate mode : Constant
Frame rate : 23.976 (24000/1001) FPS
Color space : YUV
Chroma subsampling : 4:2:0
Bit depth : 8 bits
Scan type : Progressive
Bits/(Pixel*Frame) : 0.054
Stream size : 2.36 GiB (60%)
Title : [MINI Super-HQ]_3.Pirates.of.the.Caribbean.At.Worlds.End.2007.1080p.BrRip.x264.AC3.One2load2up.com
Writing library : x264 core 129 r2245 bc13772
Encoding settings : cabac=1 / ref=5 / deblock=1:-1:-1 / analyse=0x3:0x133 / me=umh / subme=9 / psy=1 / psy_rd=1.00:0.15 / mixed_ref=1 / me_range=16 / chroma_me=1 / trellis=2 / 8x8dct=1 / cqm=0 / deadzone=21,11 / fast_pskip=1 / chroma_qp_offset=-3 / threads=12 / lookahead_threads=2 / sliced_threads=0 / nr=0 / decimate=1 / interlaced=0 / bluray_compat=0 / constrained_intra=0 / bframes=3 / b_pyramid=2 / b_adapt=2 / b_bias=0 / direct=3 / weightb=1 / open_gop=0 / weightp=2 / keyint=240 / keyint_min=23 / scenecut=40 / intra_refresh=0 / rc_lookahead=60 / rc=2pass / mbtree=1 / bitrate=2147 / ratetol=1.0 / qcomp=0.60 / qpmin=10 / qpmax=51 / qpstep=4 / cplxblur=20.0 / qblur=0.5 / ip_ratio=1.40 / aq=1:1.00
Default : Yes
Forced : No

Audio #1
ID : 2
Format : AC-3
Format/Info : Audio Coding 3
Codec ID : A_AC3
Duration : 2 h 48 min
Bit rate mode : Constant
Bit rate : 640 kb/s
Channel(s) : 6 channels
Channel positions : Front: L C R, Side: L R, LFE
Sampling rate : 48.0 kHz
Frame rate : 31.250 FPS (1536 SPF)
Bit depth : 16 bits
Compression mode : Lossy
Stream size : 771 MiB (19%)
Title : Thai AC3 640kbps
Language : Thai
Service kind : Complete Main
Default : Yes
Forced : Yes

Audio #2
ID : 3
Format : AC-3
Format/Info : Audio Coding 3
Codec ID : A_AC3
Duration : 2 h 48 min
Bit rate mode : Constant
Bit rate : 640 kb/s
Channel(s) : 6 channels
Channel positions : Front: L C R, Side: L R, LFE
Sampling rate : 48.0 kHz
Frame rate : 31.250 FPS (1536 SPF)
Bit depth : 16 bits
Compression mode : Lossy
Stream size : 771 MiB (19%)
Title : English AC3 640kbps
Language : English
Service kind : Complete Main
Default : No
Forced : No

Text #1
ID : 4
Format : VobSub
Muxing mode : zlib
Codec ID : S_VOBSUB
Codec ID/Info : Picture based subtitle format used on DVDs
Title : Thai From DVD Master
Language : Thai
Default : No
Forced : No

Text #2
ID : 5
Format : VobSub
Muxing mode : zlib
Codec ID : S_VOBSUB
Codec ID/Info : Picture based subtitle format used on DVDs
Title : Thai 480p
Language : Thai
Default : Yes
Forced : Yes

Text #3
ID : 6
Format : VobSub
Muxing mode : zlib
Codec ID : S_VOBSUB
Codec ID/Info : Picture based subtitle format used on DVDs
Title : Thai 1080p
Language : Thai
Default : No
Forced : No

Text #4
ID : 7
Format : VobSub
Muxing mode : zlib
Codec ID : S_VOBSUB
Codec ID/Info : Picture based subtitle format used on DVDs
Title : Thai 1080p
Language : Thai
Default : No
Forced : No

Text #5
ID : 8
Format : PGS
Muxing mode : zlib
Codec ID : S_HDMV/PGS
Codec ID/Info : Picture based subtitle format used on BDs/HD-DVDs
Title : Thai PGS
Language : Thai
Default : No
Forced : No

Text #6
ID : 9
Format : VobSub
Muxing mode : zlib
Codec ID : S_VOBSUB
Codec ID/Info : Picture based subtitle format used on DVDs
Title : English 480p
Language : English
Default : No
Forced : No

Text #7
ID : 10
Format : VobSub
Muxing mode : zlib
Codec ID : S_VOBSUB
Codec ID/Info : Picture based subtitle format used on DVDs
Title : English 1080p
Language : English
Default : No
Forced : No

Text #8
ID : 11
Format : VobSub
Muxing mode : zlib
Codec ID : S_VOBSUB
Codec ID/Info : Picture based subtitle format used on DVDs
Title : English 1080p
Language : English
Default : No
Forced : No

Text #9
ID : 12
Format : PGS
Muxing mode : zlib
Codec ID : S_HDMV/PGS
Codec ID/Info : Picture based subtitle format used on BDs/HD-DVDs
Title : English PGS
Language : English
Default : No
Forced : No

Text #10
ID : 13
Format : ASS
Codec ID : S_TEXT/ASS
Codec ID/Info : Advanced Sub Station Alpha
Compression mode : Lossless
Title : English SRT
Language : English
Default : No
Forced : No

DOWNLOAD


PART01 |||| PART02 |||| PART03 |||| PART04

PART01 |||| PART02 |||| PART03 |||| PART04

PART01 |||| PART02 |||| PART03 |||| PART04

PART01 |||| PART02 |||| PART03 |||| PART04


3 Comments
  1. boyd says

    โหลดไม่ได้แล้วครับบบ แก้ให้หน่อยน้าาครับ

    1. Admin
      Admin says

      แก้ไขเรียบร้อยฮ๊ะ

      1. boyd says

        ขอบคุณครับบผม

Leave A Reply

Your email address will not be published.

%d bloggers like this: