[MINI Super-HQ] Only the Cat Knows (2019) เจ้าเหมียวจิบิหายไปไหนนะ? [1080p] [พากย์ไทย 5.1 + เสียงญี่ปุ่น DTS] [บรรยายไทย + อังกฤษ] [เสียงไทย + ซับไทย] [PANDAFILE]

0

โหลดหนัง Only the Cat Knows (2019) เจ้าเหมียวจิบิหายไปไหนนะ?

Hatsukoi: Otosan, Chibi ga Inaku Narimashita (2019) 1h 44min | Comedy, Drama, Romance | 10 May 2019 (Japan) Summary: Masaru and Yukiko have been married 44 years. They have three children who live independently from them. Masaru and Yukiko enjoy their peaceful days, but, one day, Yukiko tells her daughter Naoko that she wants to divorce Masaru.
Countries: JapanLanguages: Japanese

เรื่องย่อ Only the Cat Knows (2019) เจ้าเหมียวจิบิหายไปไหนนะ?

“มาซารุ” และ “ยูกิโกะ” คู่แต่งงานที่ใช้ชีวิตร่วมกันมากว่า 44 ปี พวกเขามีลูกด้วยกัน 3 คน แต่ว่าแต่ละคนก็โตจนแยกย้ายกันไปหมดแล้วทั้งคู่จึงได้ใช้ชีวิตในวัยเกษียณอย่างสงบด้วยกันกับ “จิบิ” เจ้าแมวดำของบ้าน มาซารุเป็นคนนิ่งเงียบที่ไม่ค่อยแสดงความรู้สึกจนเกือบจะเรียกได้ว่าเย็นชาส่วนยูกิโกะก็แสนอึดอัดใจกับท่าทีของเขาจนมีเพียงเจ้าแมวดำจิบิเป็นที่พึ่งเท่านั้นกระทั่งวันหนึ่ง ยูกิโกะก็ได้บอกกับลูกสาวของเธอว่าตนต้องการจะหย่ากับมาซารุ และตอนนั้นเองเจ้าจิบิก็เกิดมาหายตัวไป!!!

Complete name : [MINI Super-HQ]_Only.the.Cat.Knows.2019.1080p.BrRip.DTS.x264.One2loadup.com.mkv
Format : Matroska
Format version : Version 4
File size : 3.85 GiB
Duration : 1 h 44 min
Overall bit rate : 5 278 kb/s
Movie name : [MINI Super-HQ]_Only.the.Cat.Knows.2019.1080p.BrRip.DTS.x264.One2loadup.com
Encoded date : UTC 2010-02-22 21:41:31
Writing application : mkvmerge v5.9.0 (‘On The Loose’) built on Dec 9 2012 15:37:01
Writing library : libebml v1.3.0 + libmatroska v1.4.0

Video
ID : 1
Format : AVC
Format/Info : Advanced Video Codec
Format profile : [email protected]
Format settings : CABAC / 4 Ref Frames
Format settings, CABAC : Yes
Format settings, ReFrames : 4 frames
Codec ID : V_MPEG4/ISO/AVC
Duration : 1 h 44 min
Bit rate : 4 004 kb/s
Width : 1 794 pixels
Height : 1 080 pixels
Display aspect ratio : 5:3
Frame rate mode : Constant
Frame rate : 23.976 (24000/1001) FPS
Color space : YUV
Chroma subsampling : 4:2:0
Bit depth : 8 bits
Scan type : Progressive
Bits/(Pixel*Frame) : 0.086
Stream size : 2.90 GiB (75%)
Title : [MINI Super-HQ]_Only.the.Cat.Knows.2019.1080p.BrRip.DTS.x264.One2loadup.com
Writing library : x264 core 130 r2273 b3065e6
Encoding settings : cabac=1 / ref=3 / deblock=1:0:0 / analyse=0x3:0x113 / me=umh / subme=11 / psy=1 / psy_rd=1.00:0.00 / mixed_ref=1 / me_range=48 / chroma_me=1 / trellis=2 / 8x8dct=1 / cqm=0 / deadzone=21,11 / fast_pskip=1 / chroma_qp_offset=-2 / threads=24 / lookahead_threads=2 / sliced_threads=0 / nr=0 / decimate=1 / interlaced=0 / bluray_compat=0 / constrained_intra=0 / bframes=3 / b_pyramid=2 / b_adapt=1 / b_bias=0 / direct=1 / weightb=1 / open_gop=0 / weightp=2 / keyint=240 / keyint_min=24 / scenecut=40 / intra_refresh=0 / rc_lookahead=40 / rc=2pass / mbtree=1 / bitrate=4004 / ratetol=1.0 / qcomp=0.60 / qpmin=0 / qpmax=69 / qpstep=4 / cplxblur=20.0 / qblur=0.5 / ip_ratio=1.40 / aq=1:1.00
Language : Japanese
Default : Yes
Forced : No
Color range : Limited
Color primaries : BT.709
Transfer characteristics : BT.709
Matrix coefficients : BT.709

Audio #1
ID : 2
Format : AC-3
Format/Info : Audio Coding 3
Commercial name : Dolby Digital
Codec ID : A_AC3
Duration : 1 h 44 min
Bit rate mode : Constant
Bit rate : 448 kb/s
Channel(s) : 6 channels
Channel layout : L R C LFE Ls Rs
Sampling rate : 48.0 kHz
Frame rate : 31.250 FPS (1536 SPF)
Bit depth : 16 bits
Compression mode : Lossy
Stream size : 335 MiB (8%)
Title : Thai DVD Master
Language : Thai
Service kind : Complete Main
Default : Yes
Forced : Yes

Audio #2
ID : 3
Format : DTS
Format/Info : Digital Theater Systems
Codec ID : A_DTS
Duration : 1 h 44 min
Bit rate mode : Constant
Bit rate : 755 kb/s
Channel(s) : 6 channels
Channel layout : C L R Ls Rs LFE
Sampling rate : 48.0 kHz
Frame rate : 93.750 FPS (512 SPF)
Bit depth : 24 bits
Compression mode : Lossy
Stream size : 564 MiB (14%)
Title : Japanese DTS
Language : Japanese
Default : No
Forced : No

Text #1
ID : 4
Format : VobSub
Codec ID : S_VOBSUB
Codec ID/Info : Picture based subtitle format used on DVDs
Title : Thai 720p
Language : Thai
Default : No
Forced : No

Text #2
ID : 5
Format : VobSub
Codec ID : S_VOBSUB
Codec ID/Info : Picture based subtitle format used on DVDs
Title : Thai 1080p
Language : Thai
Default : Yes
Forced : Yes

Text #3
ID : 6
Format : VobSub
Codec ID : S_VOBSUB
Codec ID/Info : Picture based subtitle format used on DVDs
Title : Thai 1080p Yellow
Language : Thai
Default : No
Forced : No

Text #4
ID : 7
Format : VobSub
Codec ID : S_VOBSUB
Codec ID/Info : Picture based subtitle format used on DVDs
Title : Thai 1080p BIG
Language : Thai
Default : No
Forced : No

Text #5
ID : 8
Format : PGS
Codec ID : S_HDMV/PGS
Codec ID/Info : Picture based subtitle format used on BDs/HD-DVDs
Title : Thai PGS
Language : Thai
Default : No
Forced : No

Text #6
ID : 9
Format : PGS
Codec ID : S_HDMV/PGS
Codec ID/Info : Picture based subtitle format used on BDs/HD-DVDs
Title : Thai PGS Yellow
Language : Thai
Default : No
Forced : No

Text #7
ID : 10
Format : VobSub
Codec ID : S_VOBSUB
Codec ID/Info : Picture based subtitle format used on DVDs
Language : English
Default : No
Forced : No

Menu
00:00:00.000 : en:Chapter 1
00:07:51.846 : en:Chapter 2
00:21:18.319 : en:Chapter 3
00:39:21.818 : en:Chapter 4
00:56:26.967 : en:Chapter 5
01:08:52.045 : en:Chapter 6
01:17:58.132 : en:Chapter 7
01:27:27.784 : en:Chapter 8
01:44:30.264 : en:Chapter 9

DOWNLOAD


PART01 |||| PART02 |||| PART03 |||| PART04

PART01 |||| PART02 |||| PART03 |||| PART04

PART01 |||| PART02 |||| PART03 |||| PART04

PART01 |||| PART02 |||| PART03 |||| PART04

PART01 |||| PART02 |||| PART03 |||| PART04


Leave A Reply

Your email address will not be published.

%d bloggers like this: