[MINI Super-HQ] Masked Rider: Reiwa The First Generation (2019) กำเนิดใหม่ไอ้มดแดงยุคเรย์วะ [1080p] [พากย์ไทย 2.0 + เสียงญี่ปุ่น DTS] [บรรยายไทย + อังกฤษ] [เสียงไทยมาสเตอร์ + ซับไทย] [USERLOAD]

0

โหลดหนัง Masked Rider: Reiwa The First Generation (2019) กำเนิดใหม่ไอ้มดแดงยุคเรย์วะ

Kamen Rider Reiwa: The First Generation Action, Fantasy, Sci-Fi | December 21, 2019 (Japan) Summary: Forced to be a Kamen Rider again to save the world when a Time Jacker alters history, Sougo must now work with another Kamen Rider from another world.
Countries: JapanLanguages: Japanese

เรื่องย่อ Masked Rider: Reiwa The First Generation (2019) กำเนิดใหม่ไอ้มดแดงยุคเรย์วะ

เมื่อเหตุการณ์บนหน้าประวัติศาสตร์ของมาสค์ไรเดอร์เซ โร่วันนั้นถูกเปลี่ยนแปลงเหล่ามาสค์ไรเดอร์จะทำเช่นไร? พร้อมระเบิดความมันส์ไปกับฮีโร่ผู้แปลงร่างปราบเหล่าร้าย!!!

Complete name : [MIN Super-HQ]_Kamen.Rider.Reiwa.The.First.Generation.2019.1080p.BrRip.DTS.x264.THM.One2loadup.com.mkv
Format : Matroska
Format version : Version 4
File size : 3.89 GiB
Duration : 1 h 38 min
Overall bit rate : 5 674 kb/s
Movie name : [MIN Super-HQ]_Kamen.Rider.Reiwa.The.First.Generation.2019.1080p.BrRip.DTS.x264.THM.One2loadup.com
Encoded date : UTC 2021-08-20 18:12:13
Writing application : mkvmerge v9.8.0 (‘Kuglblids’) 64bit
Writing library : libebml v1.3.4 + libmatroska v1.4.5

Video
ID : 1
Format : AVC
Format/Info : Advanced Video Codec
Format profile : [email protected]
Format settings : CABAC / 4 Ref Frames
Format settings, CABAC : Yes
Format settings, Reference : 4 frames
Codec ID : V_MPEG4/ISO/AVC
Duration : 1 h 38 min
Bit rate : 4 500 kb/s
Width : 1 920 pixels
Height : 1 080 pixels
Display aspect ratio : 16:9
Frame rate mode : Constant
Frame rate : 23.976 (24000/1001) FPS
Color space : YUV
Chroma subsampling : 4:2:0
Bit depth : 8 bits
Scan type : Progressive
Bits/(Pixel*Frame) : 0.091
Stream size : 3.09 GiB (79%)
Title : [MIN Super-HQ]_Kamen.Rider.Reiwa.The.First.Generation.2019.1080p.BrRip.DTS.x264.THM.One2loadup.com
Writing library : x264 core 157 r2935 545de2f
Encoding settings : cabac=1 / ref=4 / deblock=1:0:0 / analyse=0x1:0x131 / me=tesa / subme=11 / psy=1 / psy_rd=1.00:0.00 / mixed_ref=1 / me_range=24 / chroma_me=1 / trellis=2 / 8x8dct=0 / cqm=0 / deadzone=21,11 / fast_pskip=0 / chroma_qp_offset=-2 / threads=12 / lookahead_threads=3 / sliced_threads=0 / nr=0 / decimate=1 / interlaced=0 / bluray_compat=0 / constrained_intra=0 / bframes=16 / b_pyramid=2 / b_adapt=2 / b_bias=0 / direct=3 / weightb=1 / open_gop=0 / weightp=2 / keyint=240 / keyint_min=24 / scenecut=40 / intra_refresh=0 / rc_lookahead=60 / rc=2pass / mbtree=1 / bitrate=4500 / ratetol=1.0 / qcomp=0.60 / qpmin=0 / qpmax=69 / qpstep=4 / cplxblur=20.0 / qblur=0.5 / vbv_maxrate=50000 / vbv_bufsize=62500 / nal_hrd=none / filler=0 / ip_ratio=1.40 / aq=1:1.00
Language : Japanese
Default : Yes
Forced : No
Color range : Limited
Color primaries : BT.709
Transfer characteristics : BT.709
Matrix coefficients : BT.709

Audio #1
ID : 2
Format : AC-3
Format/Info : Audio Coding 3
Commercial name : Dolby Digital
Codec ID : A_AC3
Duration : 1 h 38 min
Bit rate mode : Constant
Bit rate : 384 kb/s
Channel(s) : 2 channels
Channel layout : L R
Sampling rate : 48.0 kHz
Frame rate : 31.250 FPS (1536 SPF)
Compression mode : Lossy
Stream size : 270 MiB (7%)
Title : Thai Master
Language : Thai
Service kind : Complete Main
Default : Yes
Forced : Yes

Audio #2
ID : 3
Format : DTS
Format/Info : Digital Theater Systems
Codec ID : A_DTS
Duration : 1 h 38 min
Bit rate mode : Constant
Bit rate : 755 kb/s
Channel(s) : 6 channels
Channel layout : C L R Ls Rs LFE
Sampling rate : 48.0 kHz
Frame rate : 93.750 FPS (512 SPF)
Bit depth : 24 bits
Compression mode : Lossy
Stream size : 530 MiB (13%)
Title : Japanese DTS-5.1
Language : Japanese
Default : No
Forced : No

Text #1
ID : 4
Format : PGS
Codec ID : S_HDMV/PGS
Codec ID/Info : Picture based subtitle format used on BDs/HD-DVDs
Duration : 1 h 38 min
Bit rate : 212 b/s
Count of elements : 4
Stream size : 153 KiB (0%)
Language : Thai
Default : Yes
Forced : No

Text #2
ID : 5
Format : PGS
Codec ID : S_HDMV/PGS
Codec ID/Info : Picture based subtitle format used on BDs/HD-DVDs
Duration : 1 h 37 min
Bit rate : 33.9 kb/s
Count of elements : 2036
Stream size : 23.7 MiB (1%)
Title : English PGS
Language : English
Default : No
Forced : No

Menu
00:00:00.000 : en:Chapter 01
00:11:56.883 : en:Chapter 02
00:21:02.470 : en:Chapter 03
00:34:12.634 : en:Chapter 04
00:42:47.648 : en:Chapter 05
00:52:38.614 : en:Chapter 06
01:03:33.059 : en:Chapter 07
01:11:16.606 : en:Chapter 08
01:25:46.224 : en:Chapter 09
01:33:32.607 : en:Chapter 10
01:38:14.013 : en:Chapter 11

DOWNLOAD


PART01 |||| PART02 |||| PART03 |||| PART04

PART01 |||| PART02 |||| PART03 |||| PART04

PART01 |||| PART02 |||| PART03 |||| PART04

PART01 |||| PART02 |||| PART03 |||| PART04

PART01 |||| PART02 |||| PART03 |||| PART04


Leave A Reply

อีเมล์ของคุณจะไม่แสดงให้เห็น Your email address will not be published.

%d bloggers like this: