[MINI Super-HQ] Harry Potter and the Order of the Phoenix (2007) แฮร์รี่ พอตเตอร์กับภาคีนกฟีนิกซ์ ภาค 5 [1080p] [พากย์ไทย 5.1 + เสียงอังกฤษ 5.1] [บรรยายไทย + อังกฤษ] [เสียงไทย + ซับไทย] [PANDAFILE]

12

โหลดหนัง Harry Potter and the Order of the Phoenix (2007) แฮร์รี่ พอตเตอร์กับภาคีนกฟีนิกซ์ ภาค 5

Harry Potter and the Order of the Phoenix | July 11, 2007 (United States) Summary: With their warning about Lord Voldemort's return scoffed at, Harry and Dumbledore are targeted by the Wizard authorities as an authoritarian bureaucrat slowly seizes power at Hogwarts.
Countries: United Kingdom, United StatesLanguages: English, Latin

เรื่องย่อ Harry Potter and the Order of the Phoenix (2007) แฮร์รี่ พอตเตอร์กับภาคีนกฟีนิกซ์ ภาค 5

ในช่วงปิดเทอมหน้าร้อน การจู่โจมของเหล่าผู้คุมวิญญาณ ทำให้ แฮร์รี่ พอตเตอร์ ต้องฝ่าฝืนกฎเกณฑ์พ่อมดที่ยังไม่ถึงวัยวุฒิ ด้วยการใช้เวทมนตร์ในโลกของมักเกิ้ล เพื่อช่วยเหลือดั๊ดลี่ย์และตัวเขาเอง ผลคือกระทรวงเวทมนตร์มีคำสั่งไล่แฮร์รี่ออกจากการเป็ นนักศึกษาของฮอกวอตส์ แม้แฮร์รี่จะยังคงสถานภาพการเป็นนักศึกษาอยู่ได้ เพราะดัมเบิลดอร์ยื่นมือเข้ามาช่วยเหลือ แต่กระทรวงได้ส่ง ศ.จ.อัมบริดจ์ เข้ามาเพื่อค่อยๆ ยึดกุมอำนาจในฮอกวอร์ต และกลบเกลื่อนข่าวการกลับมาของลอร์ดโวลเดอร์มอร์ เมื่อถูกปิดกั้นในทุกหนทาง แฮร์รี่จึงรวบรวมเหล่านักเรียนที่สมัครใจก่อตั้งทัพด ัมเบิลดอร์ขึ้นมา เพื่อเตรียมรับมือกับฝ่ายจอมมาร และร่วมมือกับภาคีนกฟินิกซ์รักษาสิ่งล้ำค่าที่ซ่อนอย ู่ในกระทรวง ซึ่งโวลเดอมอร์ต้องการแย่งชิงมาเป็นของตนเอง

Complete name : [MINI Super-HQ]_5.Harry.Potter.and.the.Order.of.the.Phoenix.2007.1080p.Blu-ray.AC3.x264.One2loadup.com.mkv
Format : Matroska
Format version : Version 4 / Version 2
File size : 4.29 GiB
Duration : 2 h 18 min
Overall bit rate mode : Variable
Overall bit rate : 4 445 kb/s
Encoded date : UTC 2014-12-10 00:29:19
Writing application : mkvmerge v7.3.0 (‘Nouages’) 64bit built on Oct 22 2014 18:53:34
Writing library : libebml v1.3.0 + libmatroska v1.4.1

Video
ID : 1
Format : AVC
Format/Info : Advanced Video Codec
Format profile : [email protected]
Format settings, CABAC : Yes
Format settings, RefFrames : 4 frames
Codec ID : V_MPEG4/ISO/AVC
Duration : 2 h 18 min
Bit rate mode : Variable
Bit rate : 3 100 kb/s
Maximum bit rate : 100.0 Mb/s
Width : 1 920 pixels
Height : 792 pixels
Display aspect ratio : 2.40:1
Frame rate mode : Constant
Frame rate : 23.976 FPS
Color space : YUV
Chroma subsampling : 4:2:0
Bit depth : 8 bits
Scan type : Progressive
Bits/(Pixel*Frame) : 0.085
Stream size : 2.99 GiB (70%)
Title : [MINI Super-HQ]_5.Harry.Potter.and.the.Order.of.the.Phoenix.2007.1080p.Blu-ray.AC3.x264.One2loadup.com
Writing library : x264 core 130 r2273 b3065e6
Encoding settings : cabac=1 / ref=4 / deblock=1:0:0 / analyse=0x3:0x133 / me=umh / subme=11 / psy=1 / psy_rd=1.00:0.15 / mixed_ref=1 / me_range=64 / chroma_me=1 / trellis=2 / 8x8dct=1 / cqm=0 / deadzone=21,11 / fast_pskip=0 / chroma_qp_offset=-3 / threads=16 / lookahead_threads=1 / sliced_threads=0 / nr=0 / decimate=1 / interlaced=0 / bluray_compat=0 / constrained_intra=0 / bframes=4 / b_pyramid=2 / b_adapt=2 / b_bias=0 / direct=3 / weightb=1 / open_gop=0 / weightp=2 / keyint=250 / keyint_min=23 / scenecut=40 / intra_refresh=0 / rc_lookahead=120 / rc=2pass / mbtree=1 / bitrate=3100 / ratetol=1.0 / qcomp=0.60 / qpmin=0 / qpmax=69 / qpstep=4 / cplxblur=20.0 / qblur=0.5 / vbv_maxrate=99999 / vbv_bufsize=99999 / nal_hrd=vbr / ip_ratio=1.40 / aq=1:1.00
Language : English
Default : Yes
Forced : No

Audio #1
ID : 2
Format : AC-3
Format/Info : Audio Coding 3
Format settings, Endianness : Big
Codec ID : A_AC3
Duration : 2 h 18 min
Bit rate mode : Constant
Bit rate : 640 kb/s
Channel(s) : 6 channels
Channel positions : Front: L C R, Side: L R, LFE
Sampling rate : 48.0 kHz
Frame rate : 31.250 FPS (1536 SPF)
Bit depth : 16 bits
Compression mode : Lossy
Stream size : 633 MiB (14%)
Title : Thai AC3
Service kind : Complete Main
Default : Yes
Forced : No

Audio #2
ID : 3
Format : AC-3
Format/Info : Audio Coding 3
Format settings, Endianness : Big
Codec ID : A_AC3
Duration : 2 h 18 min
Bit rate mode : Constant
Bit rate : 640 kb/s
Channel(s) : 6 channels
Channel positions : Front: L C R, Side: L R, LFE
Sampling rate : 48.0 kHz
Frame rate : 31.250 FPS (1536 SPF)
Bit depth : 16 bits
Compression mode : Lossy
Stream size : 633 MiB (14%)
Title : Eng AC3
Service kind : Complete Main
Default : No
Forced : No

Text #1
ID : 4
Format : VobSub
Codec ID : S_VOBSUB
Codec ID/Info : Picture based subtitle format used on DVDs
Duration : 2 h 17 min
Bit rate : 2 166 b/s
Count of elements : 1309
Stream size : 2.13 MiB (0%)
Title : Thai 480p
Default : No
Forced : No

Text #2
ID : 5
Format : PGS
Codec ID : S_HDMV/PGS
Codec ID/Info : Picture based subtitle format used on BDs/HD-DVDs
Duration : 2 h 17 min
Bit rate : 26.7 kb/s
Count of elements : 2618
Stream size : 26.3 MiB (1%)
Title : Thai PGS
Default : No
Forced : No

Text #3
ID : 6
Format : PGS
Codec ID : S_HDMV/PGS
Codec ID/Info : Picture based subtitle format used on BDs/HD-DVDs
Duration : 2 h 17 min
Bit rate : 31.8 kb/s
Count of elements : 3048
Stream size : 31.2 MiB (1%)
Title : Eng PGS
Default : No
Forced : No

Text #4
ID : 7
Format : VobSub
Codec ID : S_VOBSUB
Codec ID/Info : Picture based subtitle format used on DVDs
Duration : 2 h 17 min
Bit rate : 2 721 b/s
Count of elements : 1524
Stream size : 2.67 MiB (0%)
Title : Eng 480p
Default : No
Forced : No

 

DOWNLOAD


PART01 |||| PART02 |||| PART03 |||| PART04 |||| PART05

PART01 |||| PART02 |||| PART03 |||| PART04 |||| PART05

PART01 |||| PART02 |||| PART03 |||| PART04 |||| PART05

PART01 |||| PART02 |||| PART03 |||| PART04 |||| PART05

PART01 |||| PART02 |||| PART03 |||| PART04 |||| PART05


12 Comments
  1. Adma says

    ลิ้งเสียครับ

    1. Admin
      Admin says

      openload โหลดได้ปกตินะ

  2. Orca
    Orca says

    ลิ้งเสียครับ แก้ไขหน่อยครับ

    1. Admin
      Admin says

      แก้ให้แล้วฮ๊ะ

  3. Tanasak Thavonsiri
    Tanasak Thavonsiri says

    VIP โหลดยังไงคะ ไม่เข้าใจลองเข้าทุกลิ้งแล้วคะ

    1. Admin
      Admin says

      แนะนำติดต่อที่แชท facebook นะฮ๊ะจะได้ตอบได้ ตอนนี้ตอบว่าโหลด vip เมื่อเติมเงินเสร็จให้ดูลิ้งจะมี server ให้เลือกโหลด จากนั้นก็โหลดปกตินะฮ๊ะ ไม่เข้าใจตรงไหนสอบถามได้ฮ๊ะ

  4. peaw says

    ลิ้งเสียคับ

    1. Admin
      Admin says

      โหลดได้ปกติฮ๊ะ

  5. ฺBESTNATTAPON says

    ลิงค์เสียครับ

    1. Admin
      Admin says

      แก้ไขเรียบร้อยฮ๊ะ

  6. Non VR46
    Non VR46 says

    vip ลิ้งเสียครับ

    1. Admin
      Admin says

      vip เชิฟไหนฮ๊ะ

Leave A Reply

อีเมล์ของคุณจะไม่แสดงให้เห็น Your email address will not be published.

%d bloggers like this: