[MINI Super-HQ] Harry Potter and the Half-Blood Prince (2009) แฮร์รี่ พอตเตอร์กับเจ้าชายเลือดผสม ภาค 6 [1080p] [พากย์ไทย 5.1 + เสียงอังกฤษ 5.1] [บรรยายไทย + อังกฤษ] [เสียงไทย + ซับไทย] [PANDAFILE]

15

โหลดหนัง Harry Potter and the Half-Blood Prince (2009) แฮร์รี่ พอตเตอร์กับเจ้าชายเลือดผสม ภาค 6 

Harry Potter and the Half-Blood Prince | July 15, 2009 (United States) Summary: As Harry Potter begins his sixth year at Hogwarts, he discovers an old book marked as "the property of the Half-Blood Prince" and begins to learn more about Lord Voldemort's dark past.
Countries: United Kingdom, United StatesLanguages: English, Latin

เรื่องย่อ Harry Potter and the Half-Blood Prince (2009) แฮร์รี่ พอตเตอร์กับเจ้าชายเลือดผสม ภาค 6

โวลเดอมอร์ยิ่งบีบคั้นทั้งโลกของพวกมักเกิ้ลและพ่อมด แม่มด และฮอกวอตส์ก็ไม่ได้เป็นที่ปลอดภัยอย่างที่เคยเป็นมา แฮร์รี่สงสัยว่าอาจมีอันตรายซุกซ่อนอยู่แม้แต่ภายในป ราสาท แต่ดัมเบิลดอร์กลับยิ่งตั้งใจที่จะเตรียมให้เขาสู้ใน สงครามครั้งสุดท้าย ซึ่งเขารู้ว่ากำลังใกล้เข้ามาอย่างรวดเร็ว พวกเขาร่วมกันหากุญแจเพื่อปลดล็อคการปกป้องของโวลเดอ มอร์ และท้ายสุดดัมเบิลดอร์ขอความช่วยเหลือจากเพื่อนเก่าท ี่เคยร่วมงานกัน ศาสตราจารย์ฮอเรซ ซลักฮอร์น ผู้มีชีวิตชีวา น่าไว้ใจ และมีความสัมพันธ์อันดี ซึ่งเขาเชื่อว่าเป็นผู้กำข้อมูลสำคัญยิ่งไว้ ในขณะเดียวกัน พวกนักเรียนก็ถูกโจมตีจากคู่ต่อสู้ที่แตกต่างกันไป ในขณะที่ฮอร์โมนวัยรุ่นวิ่งพล่านอยู่ในตัว แฮร์รี่พบว่าตนเองถูกดึงดูดเข้าไปหาจินนี่มากขึ้นทุก ที แต่ก็เช่นเดียวกับดีน โทมัส และลาเวนเดอร์ บราวน์ ได้ตกลงใจว่ารอนเป็นหนุ่มของเธอ ถ้าไม่นับช็อคโกแล็ตชอง โรมิลด้า เวน และยังเฮอร์ไมโอนี่ ซึ่งพลุ่งพล่านด้วยความหึงหวง แต่ยังมุ่งมั่นที่จะเก็บงำความรู้สึกเอาไว้ ท่ามกลางความรักบานสะพรั่ง นักเรียนคนหนึ่งกลับคงไว้ซึ่งความเย็นชา เขาตั้งใจจะสร้างชื่อให้กับตัวเอง ถึงแม้จะเป็นในด้านมืดก็ตาม ความรักลอยอยู่ในอากาศ แต่เหตุการณ์ร้ายรออยู่ข้างหน้า และฮอกวอตส์อาจไม่มีวันเหมือนเดิมได้อีก

Complete name : [MINI Super-HQ]_6.Harry.Potter.and.the.Half-Blood.Prince.2009.1080p.Blu-ray.AC3.x264.One2loadup.com.mkv
Format : Matroska
Format version : Version 4 / Version 2
File size : 4.30 GiB
Duration : 2 h 33 min
Overall bit rate mode : Variable
Overall bit rate : 4 013 kb/s
Encoded date : UTC 2014-12-10 22:35:11
Writing application : mkvmerge v7.3.0 (‘Nouages’) 64bit built on Oct 22 2014 18:53:34
Writing library : libebml v1.3.0 + libmatroska v1.4.1

Video
ID : 1
Format : AVC
Format/Info : Advanced Video Codec
Format profile : [email protected]
Format settings, CABAC : Yes
Format settings, RefFrames : 4 frames
Codec ID : V_MPEG4/ISO/AVC
Duration : 2 h 33 min
Bit rate mode : Variable
Bit rate : 2 870 kb/s
Maximum bit rate : 100.0 Mb/s
Width : 1 920 pixels
Height : 800 pixels
Display aspect ratio : 2.40:1
Frame rate mode : Constant
Frame rate : 23.976 FPS
Color space : YUV
Chroma subsampling : 4:2:0
Bit depth : 8 bits
Scan type : Progressive
Bits/(Pixel*Frame) : 0.078
Stream size : 3.08 GiB (72%)
Title : [MINI Super-HQ]_6.Harry.Potter.and.the.Half-Blood.Prince.2009.1080p.Blu-ray.AC3.x264.One2loadup.com
Writing library : x264 core 130 r2273 b3065e6
Encoding settings : cabac=1 / ref=4 / deblock=1:0:0 / analyse=0x3:0x133 / me=umh / subme=11 / psy=1 / psy_rd=1.00:0.15 / mixed_ref=1 / me_range=64 / chroma_me=1 / trellis=2 / 8x8dct=1 / cqm=0 / deadzone=21,11 / fast_pskip=0 / chroma_qp_offset=-3 / threads=16 / lookahead_threads=1 / sliced_threads=0 / nr=0 / decimate=1 / interlaced=0 / bluray_compat=0 / constrained_intra=0 / bframes=4 / b_pyramid=2 / b_adapt=2 / b_bias=0 / direct=3 / weightb=1 / open_gop=0 / weightp=2 / keyint=250 / keyint_min=23 / scenecut=40 / intra_refresh=0 / rc_lookahead=120 / rc=2pass / mbtree=1 / bitrate=2870 / ratetol=1.0 / qcomp=0.60 / qpmin=0 / qpmax=69 / qpstep=4 / cplxblur=20.0 / qblur=0.5 / vbv_maxrate=99999 / vbv_bufsize=99999 / nal_hrd=vbr / ip_ratio=1.40 / aq=1:1.00
Language : English
Default : Yes
Forced : No

Audio #1
ID : 2
Format : AC-3
Format/Info : Audio Coding 3
Format settings, Endianness : Big
Codec ID : A_AC3
Duration : 2 h 33 min
Bit rate mode : Constant
Bit rate : 448 kb/s
Channel(s) : 6 channels
Channel positions : Front: L C R, Side: L R, LFE
Sampling rate : 48.0 kHz
Frame rate : 31.250 FPS (1536 SPF)
Bit depth : 16 bits
Compression mode : Lossy
Stream size : 492 MiB (11%)
Title : Thai AC3
Service kind : Complete Main
Default : Yes
Forced : No

Audio #2
ID : 3
Format : AC-3
Format/Info : Audio Coding 3
Format settings, Endianness : Big
Codec ID : A_AC3
Duration : 2 h 33 min
Bit rate mode : Constant
Bit rate : 640 kb/s
Channel(s) : 6 channels
Channel positions : Front: L C R, Side: L R, LFE
Sampling rate : 48.0 kHz
Frame rate : 31.250 FPS (1536 SPF)
Bit depth : 16 bits
Compression mode : Lossy
Stream size : 703 MiB (16%)
Title : Eng AC3
Service kind : Complete Main
Default : No
Forced : No

Text #1
ID : 4
Format : VobSub
Codec ID : S_VOBSUB
Codec ID/Info : Picture based subtitle format used on DVDs
Duration : 2 h 33 min
Bit rate : 1 976 b/s
Count of elements : 1443
Stream size : 2.16 MiB (0%)
Title : Thai 480p
Default : No
Forced : No

Text #2
ID : 5
Format : PGS
Codec ID : S_HDMV/PGS
Codec ID/Info : Picture based subtitle format used on BDs/HD-DVDs
Duration : 2 h 33 min
Bit rate : 22.6 kb/s
Count of elements : 2886
Stream size : 24.8 MiB (1%)
Title : Thai PGS
Default : No
Forced : No

Text #3
ID : 6
Format : PGS
Codec ID : S_HDMV/PGS
Codec ID/Info : Picture based subtitle format used on BDs/HD-DVDs
Duration : 2 h 33 min
Bit rate : 26.1 kb/s
Count of elements : 3038
Stream size : 28.6 MiB (1%)
Title : Eng PGS
Default : No
Forced : No

Text #4
ID : 7
Format : VobSub
Codec ID : S_VOBSUB
Codec ID/Info : Picture based subtitle format used on DVDs
Duration : 2 h 33 min
Bit rate : 2 398 b/s
Count of elements : 1519
Stream size : 2.63 MiB (0%)
Title : Thai 480p
Default : No
Forced : No

 

DOWNLOAD


PART01 |||| PART02 |||| PART03 |||| PART04 |||| PART05

PART01 |||| PART02 |||| PART03 |||| PART04 |||| PART05

PART01 |||| PART02 |||| PART03 |||| PART04 |||| PART05

PART01 |||| PART02 |||| PART03 |||| PART04 |||| PART05

PART01 |||| PART02 |||| PART03 |||| PART04 |||| PART05


15 Comments
  1. Showoff says

    โหลดไม่ได้เลยครับ

    1. Admin
      Admin says

      แก้ให้แล้วฮ๊ะ

  2. Orca
    Orca says

    ลิ้งเสียครับ แก้ไขหน่อยครับ

  3. Leo Beer
    Leo Beer says

    โหลดไม่ได้ครับ พาส2

    1. Admin
      Admin says

      แก้ไขเรียบร้อยฮ๊ะ

  4. Leo Beer
    Leo Beer says

    โครตแจ๋วเลยเว็บนี้

  5. เติ้ล says

    ไฟล์เสียหมด

    1. Admin
      Admin says

      แก้ไขเรียบร้อยฮ๊ะ

  6. เติ้ล says

    แก้ไขให้หน่อย แฮรี่พอลเตอร์ ภาค 6

    1. Admin
      Admin says

      แจ้งรอบเดียวก็ได้เด้อ ไม่งั้นก็กดปุ่มแจ้งเสีย หน้าโหลดหนังจะง่ายกว่านะฮ๊ะ

      1. เติ้ล says

        ขอโทษที

  7. เติ้ล says

    ขอโทษไม่รู้คุณเห้นแล้ว ขอโทษที

  8. เติ้ล says

    โครตแจ๋วเลยเว็บนี้ แก้ไขปัญหาได้เร็วมาก

  9. Non VR46
    Non VR46 says

    vip ลิ้งเสียครับ

    1. Admin
      Admin says

      ลิ้งไหนฮ๊ะ

Leave A Reply

อีเมล์ของคุณจะไม่แสดงให้เห็น Your email address will not be published.

%d bloggers like this: