[MINI Super-HQ] From Vegas to Macau II (2015) โคตรเซียนมาเก๊า เขย่าเวกัส 2 [1080p] [พากย์ไทย 5.1] [เสียงไทย MASTER] [PANDAFILE]

2

โหลดหนัง From Vegas to Macau II (2015) โคตรเซียนมาเก๊า เขย่าเวกัส 2

From Vegas to Macau II | February 19, 2015 (Hong Kong) Summary:
Countries: China, Hong KongLanguages: Cantonese, Mandarin, Thai, English

เรื่องย่อ From Vegas to Macau II (2015) โคตรเซียนมาเก๊า เขย่าเวกัส 2

โจวเหวินฟะ กลับมารับบทนำในภาคนี้ เรื่องราวของนักพนันอันเลื่องชื่อนามว่า เคน (โจวรุ่นฟา) ได้เดินทางกลับมาจากลาสเวกัส หลังจากที่เขาทำหน้าเป็นหัวหน้าที่ปรึกษาให้กับระบบร ักษาความปลอดภัยในบ่อน ลูกศิษย์ต่างก็ยินดีต้อนรับการกลับมาของเคน ในขณะเดียวกัน คูล (เซียะถิงฟง) สุดยอดนักเจาะระบบ ต้องการสานต่อตำนานอันเลื่องชื่อด้วยการเสนอตนเองเป็ นลูกศิษย์ แต่เคนไม่ได้รับใครเป็นลูกศิษย์ง่ายๆ เขาได้เสนอคูลว่า ถ้าหากคูลสามารถโกงเขาชนะได้เพียงแค่ครั้งเดียว เขาถึงจะยอมรับคูลเป็นลูกศิษย์ ในภาคนี้นอกจากจะได้นักแสดงอย่าง โจวเหวินฟะ และ จางเจียฮุย กลับมารับบทนำ
แล้ว หนังยังได้นักแสดงอย่าง หลิวเต๋อหัว กลับมาร่วมเล่นไพ่เหนือเทพ ในบทที่ยังไม่เปิดเผยในภาคต่อนี่ด้วย!!!

Complete name : [MINI Super-HQ]_From.Vegas.To.Macau.2015.1080p.BrRip.AC3.x264.One2loadup.com.mkv
Format : Matroska
Format version : Version 4 / Version 2
File size : 3.25 GiB
Duration : 1 h 50 min
Overall bit rate : 4 225 kb/s
Movie name : [MINI Super-HQ]_From.Vegas.To.Macau.2015.1080p.BrRip.AC3.x264.One2loadup.com
Encoded date : UTC 2010-02-22 21:41:31
Writing application : mkvmerge v5.9.0 (‘On The Loose’) built on Dec 9 2012 15:37:01
Writing library : libebml v1.3.0 + libmatroska v1.4.0

Video
ID : 1
Format : AVC
Format/Info : Advanced Video Codec
Format profile : [email protected]
Format settings : CABAC / 4 Ref Frames
Format settings, CABAC : Yes
Format settings, ReFrames : 4 frames
Codec ID : V_MPEG4/ISO/AVC
Duration : 1 h 50 min
Bit rate : 3 839 kb/s
Width : 1 920 pixels
Height : 804 pixels
Display aspect ratio : 2.40:1
Frame rate mode : Constant
Frame rate : 24.000 FPS
Color space : YUV
Chroma subsampling : 4:2:0
Bit depth : 8 bits
Scan type : Progressive
Bits/(Pixel*Frame) : 0.104
Stream size : 2.89 GiB (89%)
Title : [MINI Super-HQ]_From.Vegas.To.Macau.2015.1080p.BrRip.AC3.x264.One2loadup.com
Writing library : x264 core 130 r2273 b3065e6
Encoding settings : cabac=1 / ref=3 / deblock=1:0:0 / analyse=0x3:0x113 / me=umh / subme=11 / psy=1 / psy_rd=1.00:0.00 / mixed_ref=1 / me_range=48 / chroma_me=1 / trellis=2 / 8x8dct=1 / cqm=0 / deadzone=21,11 / fast_pskip=1 / chroma_qp_offset=-2 / threads=12 / lookahead_threads=1 / sliced_threads=0 / nr=0 / decimate=1 / interlaced=0 / bluray_compat=0 / constrained_intra=0 / bframes=3 / b_pyramid=2 / b_adapt=1 / b_bias=0 / direct=1 / weightb=1 / open_gop=0 / weightp=2 / keyint=240 / keyint_min=24 / scenecut=40 / intra_refresh=0 / rc_lookahead=40 / rc=2pass / mbtree=1 / bitrate=3839 / ratetol=1.0 / qcomp=0.60 / qpmin=0 / qpmax=69 / qpstep=4 / cplxblur=20.0 / qblur=0.5 / ip_ratio=1.40 / aq=1:1.00
Language : English
Default : Yes
Forced : No
Color range : Limited
Color primaries : BT.709
Transfer characteristics : BT.709
Matrix coefficients : BT.709

Audio
ID : 2
Format : AC-3
Format/Info : Audio Coding 3
Codec ID : A_AC3
Duration : 1 h 50 min
Bit rate mode : Constant
Bit rate : 384 kb/s
Channel(s) : 6 channels
Channel positions : Front: L C R, Side: L R, LFE
Sampling rate : 48.0 kHz
Frame rate : 31.250 FPS (1536 SPF)
Bit depth : 16 bits
Compression mode : Lossy
Stream size : 303 MiB (9%)
Title : Thai DVD Master
Language : Thai
Service kind : Complete Main
Default : Yes
Forced : Yes

DOWNLOAD


PART01 |||| PART02 |||| PART03 |||| PART04

PART01 |||| PART02 |||| PART03 |||| PART04

PART01 |||| PART02 |||| PART03 |||| PART04

PART01 |||| PART02 |||| PART03 |||| PART04

PART01 |||| PART02 |||| PART03 |||| PART04


2 Comments
  1. Vong Speed
    Vong Speed says

    มันโหลด ไม่ได้ครับแก้ไขให้หนอย

    1. Admin
      Admin says

      แก้ไขเรียบร้อยฮ๊ะ

Leave A Reply

อีเมล์ของคุณจะไม่แสดงให้เห็น Your email address will not be published.

%d bloggers like this: