[MINI Super-HQ] Fifty Shades Darker (2017) ฟิฟตี้เชดส์ ดาร์กเกอร์ ภาค 2 [1080p] [พากย์ไทย DTS + เสียงอังกฤษ DTS] [บรรยายไทย + อังกฤษ] [เสียงไทย + ซับไทย] [PANDAFILE]

2

Fifty Shades Darker (2017) ฟิฟตี้เชดส์ ดาร์กเกอร์ ภาค 2

โหลดหนัง Fifty Shades Darker (2017) ฟิฟตี้เชดส์ ดาร์กเกอร์ ภาค 2 

Fifty Shades Darker | February 10, 2017 (United States) Summary: While Christian wrestles with his inner demons, Anastasia must confront the anger and envy of the women who came before her.
Countries: United States, China, JapanLanguages: English

เรื่องย่อ Fifty Shades Darker (2017) ฟิฟตี้เชดส์ ดาร์กเกอร์ ภาค 2

เป็นเรื่องราวต่อจากภาคแรก คริสเตียน เกรย์ ผู้บอบช้ำจากความรัก พยายามตามง้อแอนัสเตเชีย สตีล ให้กลับมาคืนดีกับเขาก่อนที่เธอจะให้โอกาสเขาอีกครั้ง แอนัสเตเชียก็ยื่นข้อตกลงใหม่ให้กับเขา จากนั้น ทั้งคู่เริ่มสร้างความไว้เนื้อเชื่อใจและความมั่นคงในชีวิต แต่ก็ต้องเผชิญกับอดีตของคริสเตียน เกรย์ ที่ตามมาทำลายความหวังที่จะสร้างอนาคตร่วมกัน

Complete name : [MINI Super-hQ]_Fifty.Shades.Darker.2017.UNRATED.1080p.BrRip.DTS.x264.One2loadup.com.mkv
Format : Matroska
Format version : Version 4 / Version 2
File size : 4.25 GiB
Duration : 2 h 11 min
Overall bit rate : 4 632 kb/s
Movie name : [MINI Super-hQ]_Fifty.Shades.Darker.2017.UNRATED.1080p.BrRip.DTS.x264.One2loadup.com
Encoded date : UTC 2010-02-22 21:41:31
Writing application : mkvmerge v5.9.0 (‘On The Loose’) built on Dec 9 2012 15:37:01
Writing library : libebml v1.3.0 + libmatroska v1.4.0

Video
ID : 1
Format : AVC
Format/Info : Advanced Video Codec
Format profile : [email protected]
Format settings : CABAC / 4 Ref Frames
Format settings, CABAC : Yes
Format settings, ReFrames : 4 frames
Codec ID : V_MPEG4/ISO/AVC
Duration : 2 h 11 min
Bit rate : 3 003 kb/s
Width : 1 920 pixels
Height : 800 pixels
Display aspect ratio : 2.40:1
Frame rate mode : Constant
Frame rate : 23.976 (24000/1001) FPS
Color space : YUV
Chroma subsampling : 4:2:0
Bit depth : 8 bits
Scan type : Progressive
Bits/(Pixel*Frame) : 0.082
Stream size : 2.77 GiB (65%)
Title : [MINI Super-hQ]_Fifty.Shades.Darker.2017.UNRATED.1080p.BrRip.DTS.x264.One2loadup.com
Writing library : x264 core 130 r2273 b3065e6
Encoding settings : cabac=1 / ref=3 / deblock=1:0:0 / analyse=0x3:0x113 / me=umh / subme=11 / psy=1 / psy_rd=1.00:0.00 / mixed_ref=1 / me_range=48 / chroma_me=1 / trellis=2 / 8x8dct=1 / cqm=0 / deadzone=21,11 / fast_pskip=1 / chroma_qp_offset=-2 / threads=10 / lookahead_threads=1 / sliced_threads=0 / nr=0 / decimate=1 / interlaced=0 / bluray_compat=0 / constrained_intra=0 / bframes=3 / b_pyramid=2 / b_adapt=1 / b_bias=0 / direct=1 / weightb=1 / open_gop=0 / weightp=2 / keyint=240 / keyint_min=24 / scenecut=40 / intra_refresh=0 / rc_lookahead=40 / rc=2pass / mbtree=1 / bitrate=3003 / ratetol=1.0 / qcomp=0.60 / qpmin=0 / qpmax=69 / qpstep=4 / cplxblur=20.0 / qblur=0.5 / ip_ratio=1.40 / aq=1:1.00
Language : English
Default : Yes
Forced : No
Color range : Limited
Color primaries : BT.709
Transfer characteristics : BT.709
Matrix coefficients : BT.709

Audio #1
ID : 2
Format : DTS
Format/Info : Digital Theater Systems
Codec ID : A_DTS
Duration : 2 h 11 min
Bit rate mode : Constant
Bit rate : 768 kb/s
Channel(s) : 6 channels
Channel positions : Front: L C R, Side: L R, LFE
Sampling rate : 48.0 kHz
Frame rate : 93.750 FPS (512 SPF)
Bit depth : 24 bits
Compression mode : Lossy
Stream size : 722 MiB (17%)
Title : Thai DTS BluRay Master
Language : Thai
Default : Yes
Forced : Yes

Audio #2
ID : 3
Format : DTS
Format/Info : Digital Theater Systems
Codec ID : A_DTS
Duration : 2 h 11 min
Bit rate mode : Constant
Bit rate : 755 kb/s
Channel(s) : 6 channels
Channel positions : Front: L C R, Side: L R, LFE
Sampling rate : 48.0 kHz
Frame rate : 93.750 FPS (512 SPF)
Bit depth : 24 bits
Compression mode : Lossy
Stream size : 710 MiB (16%)
Title : English DTS
Language : English
Default : No
Forced : No

Text #1
ID : 4
Format : VobSub
Codec ID : S_VOBSUB
Codec ID/Info : Picture based subtitle format used on DVDs
Title : Thai 480p
Language : Thai
Default : No
Forced : No

Text #2
ID : 5
Format : VobSub
Codec ID : S_VOBSUB
Codec ID/Info : Picture based subtitle format used on DVDs
Title : Thai 1080p
Language : Thai
Default : Yes
Forced : Yes

Text #3
ID : 6
Format : VobSub
Codec ID : S_VOBSUB
Codec ID/Info : Picture based subtitle format used on DVDs
Title : Thai 1080p Yellow
Language : Thai
Default : No
Forced : No

Text #4
ID : 7
Format : VobSub
Codec ID : S_VOBSUB
Codec ID/Info : Picture based subtitle format used on DVDs
Title : Thai 1080p Out
Language : Thai
Default : No
Forced : No

Text #5
ID : 8
Format : VobSub
Codec ID : S_VOBSUB
Codec ID/Info : Picture based subtitle format used on DVDs
Title : Thai 1080p BIG
Language : Thai
Default : No
Forced : No

Text #6
ID : 9
Format : PGS
Codec ID : S_HDMV/PGS
Codec ID/Info : Picture based subtitle format used on BDs/HD-DVDs
Title : Thai PGS
Language : Thai
Default : No
Forced : No

Text #7
ID : 10
Format : PGS
Codec ID : S_HDMV/PGS
Codec ID/Info : Picture based subtitle format used on BDs/HD-DVDs
Title : Thai PGS Out
Language : Thai
Default : No
Forced : No

Text #8
ID : 11
Format : PGS
Codec ID : S_HDMV/PGS
Codec ID/Info : Picture based subtitle format used on BDs/HD-DVDs
Title : English
Language : English
Default : No
Forced : No

Menu
00:00:00.000 : en:Chapter 1
00:05:47.889 : en:Chapter 2
00:13:14.460 : en:Chapter 3
00:18:18.055 : en:Chapter 4
00:24:45.359 : en:Chapter 5
00:29:19.675 : en:Chapter 6
00:37:25.243 : en:Chapter 7
00:44:31.836 : en:Chapter 8
00:50:22.394 : en:Chapter 9
00:57:58.058 : en:Chapter 10
01:06:01.958 : en:Chapter 11
01:11:54.936 : en:Chapter 12
01:24:49.876 : en:Chapter 13
01:30:39.851 : en:Chapter 14
01:35:40.652 : en:Chapter 15
01:41:00.263 : en:Chapter 16
01:48:53.902 : en:Chapter 17
01:55:57.742 : en:Chapter 18
02:01:38.374 : en:Chapter 19
02:05:32.442 : en:Chapter 20

DOWNLOAD


PART01 |||| PART02 |||| PART03 |||| PART04 |||| PART05

PART01 |||| PART02 |||| PART03 |||| PART04 |||| PART05

PART01 |||| PART02 |||| PART03 |||| PART04 |||| PART05

PART01 |||| PART02 |||| PART03 |||| PART04 |||| PART05

PART01 |||| PART02 |||| PART03 |||| PART04 |||| PART05


2 Comments
  1. Orca
    Orca says

    ลิ้งเสียแล้วครับ ช่วยแก้หน่อยครับ

    1. Admin
      Admin says

      แก้ไขเรียบร้อยฮ๊ะ

Leave A Reply

อีเมล์ของคุณจะไม่แสดงให้เห็น Your email address will not be published.

%d bloggers like this: