[MINI Super-HQ] Doctor Strange in the Multiverse of Madness (2022) จอมเวทย์มหากาฬ ในมัลติเวิร์สมหาภัย [1080p] [พากย์ไทย 5.1 +เสียงอังกฤษ DTS] [บรรยายไทย + อังกฤษ] [เสียงไทย + ซับไทย] [DOSYAUPLOAD]

0

โหลดหนัง Doctor Strange in the Multiverse of Madness (2022) จอมเวทย์มหากาฬ ในมัลติเวิร์สมหาภัย

Doctor Strange in the Multiverse of Madness | May 6, 2022 (United States) Summary: Doctor Strange teams up with a mysterious teenage girl from his dreams who can travel across multiverses, to battle multiple threats, including other-universe versions of himself, which thre... Read all
Countries: United StatesLanguages: English

เรื่องย่อ Doctor Strange in the Multiverse of Madness (2022) จอมเวทย์มหากาฬ ในมัลติเวิร์สมหาภัย

เรื่องราวเปิดมาด้วยตัวละครใหม่อย่างอเมริกาชาเวซ (รับบทโดย โซชิตล์ โกเมซ) เด็กหญิงจากต่างจักรวาล ที่มีพลังในการเดินทางข้ามจักรวาลและมีคนที่อยากจะได้พลังในการเดินทางข้ามจักรวาลของเธอ ทำให้เธอต้องถูกไล่ล่าจากจักรวาลอื่น สุดท้ายเธอได้หนีเข้ามาในจักรวาลหลักและได้เจอกับ ดร.สเตรนจ์ จากนั้น ดร.สเตรนจ์ ก็ได้ยื่นมือเข้าช่วยเธอ ซึ่งได้รู้ว่าแท้จริงแล้วคนที่อยากช่วงชิงพลังของเด็กสาวก็คือ วานด้า แม็กซิมอฟฟ์หรือ สการ์เล็ตวิทช์ (รับบทโดย อลิซาเบธ โอลเซ่น) เนื่องจากเธออยากเดินทางข้ามจักรวาลไปอยู่ในจักรวาลอื่นที่เธอมีลูกเพราะเธอเสียใจที่เสียลูกไปในซีรีส์ WandaVision (2021) ซึ่งในตอนท้ายของซีรีส์เธอได้ทำการฝึกวิชาต้องห้ามทำให้ในภาคนี้เธอมีพลังมากกว่าเดิมเพราะฝึกวิชาห้ามสำเร็จ สุดท้ายแล้ว ดร.สเตรนจ์ และอเมริกาชาเวซจะสามารถรับมือกับสการ์เล็ตวิทช์ ได้หรือไม่และสุดท้ายเรื่องราวจะจบลงอย่างไร!!!

Complete name : [MINI Super-HQ]_Doctor.Strange.in.the.Multiverse.of.Madness.2022.1080p.BrRip.DTS.x264.One2loadup.com.mkv
Format : Matroska
Format version : Version 4
File size : 4.92 GiB
Duration : 2 h 6 min
Overall bit rate : 5 570 kb/s
Movie name : [MINI Super-HQ]_Doctor.Strange.in.the.Multiverse.of.Madness.2022.1080p.BrRip.DTS.x264.One2loadup.com
Encoded date : UTC 2022-07-08 12:31:03
Writing application : mkvmerge v9.8.0 (‘Kuglblids’) 64bit
Writing library : libebml v1.3.4 + libmatroska v1.4.5

Video
ID : 1
Format : AVC
Format/Info : Advanced Video Codec
Format profile : [email protected]
Format settings : CABAC / 5 Ref Frames
Format settings, CABAC : Yes
Format settings, Reference : 5 frames
Codec ID : V_MPEG4/ISO/AVC
Duration : 2 h 6 min
Bit rate : 4 000 kb/s
Width : 1 920 pixels
Height : 804 pixels
Display aspect ratio : 2.40:1
Frame rate mode : Constant
Frame rate : 23.976 (24000/1001) FPS
Color space : YUV
Chroma subsampling : 4:2:0
Bit depth : 8 bits
Scan type : Progressive
Bits/(Pixel*Frame) : 0.108
Stream size : 3.53 GiB (72%)
Title : [MINI Super-HQ]_Doctor.Strange.in.the.Multiverse.of.Madness.2022.1080p.BrRip.DTS.x264.One2loadup.com
Writing library : x264 core 157 r2935 545de2f
Encoding settings : cabac=1 / ref=5 / deblock=1:0:0 / analyse=0x1:0x131 / me=tesa / subme=11 / psy=1 / psy_rd=1.00:0.00 / mixed_ref=1 / me_range=24 / chroma_me=1 / trellis=2 / 8x8dct=0 / cqm=0 / deadzone=21,11 / fast_pskip=0 / chroma_qp_offset=-2 / threads=12 / lookahead_threads=3 / sliced_threads=0 / nr=0 / decimate=1 / interlaced=0 / bluray_compat=0 / constrained_intra=0 / bframes=16 / b_pyramid=2 / b_adapt=2 / b_bias=0 / direct=3 / weightb=1 / open_gop=0 / weightp=2 / keyint=240 / keyint_min=24 / scenecut=40 / intra_refresh=0 / rc_lookahead=60 / rc=2pass / mbtree=1 / bitrate=4000 / ratetol=1.0 / qcomp=0.60 / qpmin=0 / qpmax=69 / qpstep=4 / cplxblur=20.0 / qblur=0.5 / vbv_maxrate=50000 / vbv_bufsize=62500 / nal_hrd=none / filler=0 / ip_ratio=1.40 / aq=1:1.00
Language : English
Default : Yes
Forced : No
Color range : Limited
Color primaries : BT.709
Transfer characteristics : BT.709
Matrix coefficients : BT.709

Audio #1
ID : 2
Format : AC-3
Format/Info : Audio Coding 3
Commercial name : Dolby Digital
Codec ID : A_AC3
Duration : 2 h 6 min
Bit rate mode : Constant
Bit rate : 448 kb/s
Channel(s) : 6 channels
Channel layout : L R C LFE Ls Rs
Sampling rate : 48.0 kHz
Frame rate : 31.250 FPS (1536 SPF)
Compression mode : Lossy
Stream size : 405 MiB (8%)
Title : Thai DD 5.1 Master
Language : Thai
Service kind : Complete Main
Default : Yes
Forced : Yes

Audio #2
ID : 3
Format : DTS
Format/Info : Digital Theater Systems
Codec ID : A_DTS
Duration : 2 h 6 min
Bit rate mode : Constant
Bit rate : 755 kb/s
Channel(s) : 6 channels
Channel layout : C L R Ls Rs LFE
Sampling rate : 48.0 kHz
Frame rate : 93.750 FPS (512 SPF)
Bit depth : 24 bits
Compression mode : Lossy
Stream size : 683 MiB (14%)
Title : English DTS 5.1
Language : English
Default : No
Forced : No

Audio #3
ID : 4
Format : AC-3
Format/Info : Audio Coding 3
Commercial name : Dolby Digital
Codec ID : A_AC3
Duration : 2 h 6 min
Bit rate mode : Constant
Bit rate : 192 kb/s
Channel(s) : 2 channels
Channel layout : L R
Sampling rate : 48.0 kHz
Frame rate : 31.250 FPS (1536 SPF)
Compression mode : Lossy
Stream size : 174 MiB (3%)
Title : Commentary by Sam Raimi, Richie Palmer, and Michael Waldron
Language : English
Service kind : Complete Main
Default : No
Forced : No

Text #1
ID : 5
Format : PGS
Codec ID : S_HDMV/PGS
Codec ID/Info : Picture based subtitle format used on BDs/HD-DVDs
Duration : 2 h 5 min
Bit rate : 25.3 kb/s
Count of elements : 2524
Stream size : 22.6 MiB (0%)
Title : Thai PGS
Language : Thai
Default : Yes
Forced : Yes

Text #2
ID : 6
Format : VobSub
Codec ID : S_VOBSUB
Codec ID/Info : Picture based subtitle format used on DVDs
Duration : 2 h 5 min
Bit rate : 6 260 b/s
Count of elements : 1261
Stream size : 5.61 MiB (0%)
Title : Thai VobSub
Language : Thai
Default : No
Forced : No

Text #3
ID : 7
Format : PGS
Codec ID : S_HDMV/PGS
Codec ID/Info : Picture based subtitle format used on BDs/HD-DVDs
Duration : 2 h 5 min
Bit rate : 25.3 kb/s
Count of elements : 2524
Stream size : 22.6 MiB (0%)
Title : Thai PGS Out
Language : Thai
Default : No
Forced : No

Text #4
ID : 8
Format : VobSub
Codec ID : S_VOBSUB
Codec ID/Info : Picture based subtitle format used on DVDs
Duration : 2 h 5 min
Bit rate : 6 260 b/s
Count of elements : 1261
Stream size : 5.61 MiB (0%)
Title : Thai VobSub Out
Language : Thai
Default : No
Forced : No

Text #5
ID : 9
Format : VobSub
Codec ID : S_VOBSUB
Codec ID/Info : Picture based subtitle format used on DVDs
Duration : 2 h 5 min
Bit rate : 6 245 b/s
Count of elements : 1261
Stream size : 5.59 MiB (0%)
Title : Thai VobSub Out [Yellow]
Language : Thai
Default : No
Forced : No

Text #6
ID : 10
Format : UTF-8
Codec ID : S_TEXT/UTF8
Codec ID/Info : UTF-8 Plain Text
Duration : 2 h 5 min
Bit rate : 37 b/s
Count of elements : 1321
Stream size : 34.0 KiB (0%)
Title : English SRT
Language : English
Default : No
Forced : No

Text #7
ID : 11
Format : PGS
Codec ID : S_HDMV/PGS
Codec ID/Info : Picture based subtitle format used on BDs/HD-DVDs
Duration : 2 h 5 min
Bit rate : 35.5 kb/s
Count of elements : 3813
Stream size : 31.9 MiB (1%)
Title : English PGS
Language : English
Default : No
Forced : No

Text #8
ID : 12
Format : PGS
Codec ID : S_HDMV/PGS
Codec ID/Info : Picture based subtitle format used on BDs/HD-DVDs
Duration : 2 h 6 min
Bit rate : 68.1 kb/s
Count of elements : 4444
Stream size : 61.5 MiB (1%)
Title : Commentary by Sam Raimi, Richie Palmer, and Michael Waldron
Language : English
Default : No
Forced : No

DOWNLOAD


PART01 |||| PART02 |||| PART03 |||| PART04 |||| PART05

PART01 |||| PART02 |||| PART03 |||| PART04 |||| PART05

PART01 |||| PART02 |||| PART03 |||| PART04 |||| PART05

PART01 |||| PART02 |||| PART03 |||| PART04 |||| PART05

PART01 |||| PART02 |||| PART03 |||| PART04 |||| PART05


Leave A Reply

อีเมล์ของคุณจะไม่แสดงให้เห็น Your email address will not be published.

%d bloggers like this: