[MINI Super-HQ] Black Widow (2021) แบล็ค วิโดว์ [1080p] [พากย์ไทย 5.1 + เสียงอังกฤษ DTS] [บรรยายไทย + อังกฤษ] [เสียงไทย + ซับไทย] [DOSYAUPLOAD]

2

โหลดหนัง Black Widow (2021) แบล็ค วิโดว์

Black Widow (2021) 133min | Action, Adventure, Sci-Fi | July 9, 2021 (United States) Summary:
Countries: United StatesLanguages: English

เรื่องย่อ Black Widow (2021) แบล็ค วิโดว์

หนังฉายเดี่ยวของฮีโร่ตัวแม่ เปิดจักรวาลมาร์เวลเฟส 4 เรื่องแรก จิ๊กซอว์ที่จะเติมเต็มจักรวาลให้สมบูรณ์ กับภารกิจล้างอดีตครั้งสำคัญของ นาตาชา โรมานอฟ ผลงานกำกับการแสดงโดย เคท ชอร์ทแลนด์ เสริมทัพนักแสดงโดย เรเชล ไวซ์, โอที แฟกบีเนล และ ฟลอเรนซ์ พิวจ์!!!

Complete name : [MINI Super-HQ]_Black.Widow.2021.1080p.BrRip.DTS.x264.One2loadup.com.mkv
Format : Matroska
Format version : Version 4
File size : 4.18 GiB
Duration : 2 h 13 min
Overall bit rate : 4 476 kb/s
Movie name : [MINI Super-HQ]_Black.Widow.2021.1080p.BrRip.DTS.x264.One2loadup.com
Encoded date : UTC 2021-10-06 20:57:19
Writing application : mkvmerge v9.8.0 (‘Kuglblids’) 64bit
Writing library : libebml v1.3.4 + libmatroska v1.4.5

Video
ID : 1
Format : AVC
Format/Info : Advanced Video Codec
Format profile : [email protected]
Format settings : CABAC / 4 Ref Frames
Format settings, CABAC : Yes
Format settings, Reference : 4 frames
Codec ID : V_MPEG4/ISO/AVC
Duration : 2 h 13 min
Bit rate : 3 172 kb/s
Width : 1 920 pixels
Height : 802 pixels
Display aspect ratio : 2.40:1
Frame rate mode : Constant
Frame rate : 23.976 (24000/1001) FPS
Color space : YUV
Chroma subsampling : 4:2:0
Bit depth : 8 bits
Scan type : Progressive
Bits/(Pixel*Frame) : 0.086
Stream size : 2.96 GiB (71%)
Title : [MINI Super-HQ]_Black.Widow.2021.1080p.BrRip.DTS.x264.One2loadup.com
Writing library : x264 core 146 r2538 121396c
Encoding settings : cabac=1 / ref=5 / deblock=1:-3:-3 / analyse=0x3:0x133 / me=tesa / subme=11 / psy=1 / psy_rd=1.00:0.15 / mixed_ref=1 / me_range=48 / chroma_me=1 / trellis=2 / 8x8dct=1 / cqm=0 / deadzone=21,11 / fast_pskip=1 / chroma_qp_offset=-3 / threads=54 / lookahead_threads=4 / sliced_threads=0 / nr=0 / decimate=1 / interlaced=0 / bluray_compat=1 / constrained_intra=0 / bframes=3 / b_pyramid=1 / b_adapt=2 / b_bias=0 / direct=3 / weightb=1 / open_gop=0 / weightp=1 / keyint=250 / keyint_min=1 / scenecut=40 / intra_refresh=0 / rc_lookahead=60 / rc=2pass / mbtree=1 / bitrate=3172 / ratetol=1.0 / qcomp=0.60 / qpmin=0 / qpmax=69 / qpstep=4 / cplxblur=20.0 / qblur=0.5 / ip_ratio=1.40 / aq=1:1.30
Language : English
Default : Yes
Forced : No

Audio #1
ID : 2
Format : AC-3
Format/Info : Audio Coding 3
Commercial name : Dolby Digital
Codec ID : A_AC3
Duration : 2 h 13 min
Bit rate mode : Constant
Bit rate : 448 kb/s
Channel(s) : 6 channels
Channel layout : L R C LFE Ls Rs
Sampling rate : 48.0 kHz
Frame rate : 31.250 FPS (1536 SPF)
Compression mode : Lossy
Stream size : 429 MiB (10%)
Title : Thai 5.1 Master
Language : Thai
Service kind : Complete Main
Default : Yes
Forced : Yes

Audio #2
ID : 3
Format : DTS
Format/Info : Digital Theater Systems
Codec ID : A_DTS
Duration : 2 h 13 min
Bit rate mode : Constant
Bit rate : 755 kb/s
Channel(s) : 6 channels
Channel layout : C L R Ls Rs LFE
Sampling rate : 48.0 kHz
Frame rate : 93.750 FPS (512 SPF)
Bit depth : 24 bits
Compression mode : Lossy
Stream size : 722 MiB (17%)
Title : English DTS-5.1
Language : English
Default : No
Forced : No

Text #1
ID : 4
Format : PGS
Codec ID : S_HDMV/PGS
Codec ID/Info : Picture based subtitle format used on BDs/HD-DVDs
Duration : 2 h 13 min
Bit rate : 24.8 kb/s
Count of elements : 2626
Stream size : 23.7 MiB (1%)
Title : Thai 1080p PGS
Language : Thai
Default : Yes
Forced : Yes

Text #2
ID : 5
Format : VobSub
Codec ID : S_VOBSUB
Codec ID/Info : Picture based subtitle format used on DVDs
Duration : 2 h 13 min
Bit rate : 5 797 b/s
Count of elements : 1313
Stream size : 5.54 MiB (0%)
Title : Thai 1080p
Language : Thai
Default : No
Forced : No

Text #3
ID : 6
Format : PGS
Codec ID : S_HDMV/PGS
Codec ID/Info : Picture based subtitle format used on BDs/HD-DVDs
Duration : 2 h 13 min
Bit rate : 23.9 kb/s
Count of elements : 2626
Stream size : 22.8 MiB (1%)
Title : Thai 1080p Out PGS
Language : Thai
Default : No
Forced : No

Text #4
ID : 7
Format : VobSub
Codec ID : S_VOBSUB
Codec ID/Info : Picture based subtitle format used on DVDs
Duration : 2 h 13 min
Bit rate : 5 549 b/s
Count of elements : 1313
Stream size : 5.30 MiB (0%)
Title : Thai 1080p Out
Language : Thai
Default : No
Forced : No

Text #5
ID : 8
Format : VobSub
Codec ID : S_VOBSUB
Codec ID/Info : Picture based subtitle format used on DVDs
Duration : 2 h 13 min
Bit rate : 7 869 b/s
Count of elements : 1313
Stream size : 7.52 MiB (0%)
Title : Thai 1080p Big [Yellow]
Language : Thai
Default : No
Forced : No

Text #6
ID : 9
Format : PGS
Codec ID : S_HDMV/PGS
Codec ID/Info : Picture based subtitle format used on BDs/HD-DVDs
Duration : 2 h 13 min
Bit rate : 32.6 kb/s
Count of elements : 3294
Stream size : 31.1 MiB (1%)
Title : English [SDH]
Language : English
Default : No
Forced : No

Text #7
ID : 10
Format : UTF-8
Codec ID : S_TEXT/UTF8
Codec ID/Info : UTF-8 Plain Text
Duration : 2 h 12 min
Bit rate : 40 b/s
Count of elements : 1345
Stream size : 39.1 KiB (0%)
Title : English SRT
Language : English
Default : No
Forced : No

Menu
00:00:00.000 : en:00:00:00.000
00:04:55.170 : en:00:04:55.170
00:13:10.081 : en:00:13:10.081
00:16:24.567 : en:00:16:24.567
00:18:41.871 : en:00:18:41.871
00:21:41.634 : en:00:21:41.634
00:25:40.789 : en:00:25:40.789
00:30:06.346 : en:00:30:06.346
00:39:05.468 : en:00:39:05.468
00:44:46.350 : en:00:44:46.350
00:53:25.994 : en:00:53:25.994
01:01:38.153 : en:01:01:38.153
01:07:46.271 : en:01:07:46.271
01:11:40.671 : en:01:11:40.671
01:17:48.789 : en:01:17:48.789
01:27:19.234 : en:01:27:19.234
01:33:33.441 : en:01:33:33.441
01:37:37.477 : en:01:37:37.477
01:41:18.656 : en:01:41:18.656
01:45:37.873 : en:01:45:37.873
01:51:41.653 : en:01:51:41.653
01:57:09.105 : en:01:57:09.105
02:01:59.687 : en:02:01:59.687
02:04:25.458 : en:02:04:25.458

DOWNLOAD


PART01 |||| PART02 |||| PART03 |||| PART04 |||| PART05

PART01 |||| PART02 |||| PART03 |||| PART04 |||| PART05

PART01 |||| PART02 |||| PART03 |||| PART04 |||| PART05

PART01 |||| PART02 |||| PART03 |||| PART04 |||| PART05

PART01 |||| PART02 |||| PART03 |||| PART04 |||| PART05


2 Comments
  1. Anucha Phosong
    Anucha Phosong says

    Download แบบ VIP ยังไงครับ พอดีสมัครและเติมเงินแล้วไม่ได้ครับ

    1. Admin
      Admin says

      เลือกเชิฟเวอร์ 0-4 เลือกอันที่เน็ตคุณโหลดได้เร็วสุดสุดฮ๊ะ

Leave A Reply

อีเมล์ของคุณจะไม่แสดงให้เห็น Your email address will not be published.

%d bloggers like this: