[MINI Super-HQ] Along With the Gods: The Two Worlds (2017) ฝ่า 7 นรกไปกับพระเจ้า [1080p] [พากย์ไทย 5.1 + เสียงเกาหลี DTS] [บรรยายไทย + อังกฤษ] [เสียงไทย + ซับไทย] [PANDAFILE]

6

Along With the Gods: The Two Worlds (2017) ฝ่า 7 นรกไปกับพระเจ้า

โหลดหนัง Along With the Gods: The Two Worlds (2017) ฝ่า 7 นรกไปกับพระเจ้า 

Along With the Gods: The Two Worlds | December 20, 2017 (South Korea) Summary: After a heroic death, a firefighter navigates the afterlife with the help of three guides.
Countries: South KoreaLanguages: Korean

เรื่องย่อ Along With the Gods: The Two Worlds (2017) ฝ่า 7 นรกไปกับพระเจ้า

สร้างมาจากเว็บตูนสุดฮิตในชื่อเดียวกันที่มียอดอ่านกว่าพันล้านวิว รวมถึงมียอดขายในแบบรูปเล่มกว่า 450,000 เล่ม และใช้ทุนสร้างระดับมหากาพย์สูงถึง 4 หมื่นล้านวอน(หรือ 35 ล้านเหรียญฯ) เตรียมจัดเต็มความบันเทิงด้วยอภินิหารการต่อสู้ของเทพผู้พิทักษ์ลุยฝ่าด่าน 7 เทพ 7 ขุมนรก เพื่อพิสูจน์ตัวตนสู่การกำเนิดใหม่เรื่องราวของ คิม จาฮง (รับบทโดย ชา แทฮยอน) นักดับเพลิงที่เสียชีวิตอย่างไม่คาดคิดเขาถูกนำตัวไปยังปรโลกเคียงคู่กับเหล่าเทพผู้พิทักษ์ ทั้งสาม ได้แก่ ผู้นำทีมเทพผู้พิทักษ์ คังลิม (ฮา จองอู), เทพนักต่อสู้ฝีมือกล้าแกร่ง เฮวอนมัค (จู จีฮุน)และ เทพแห่งมันสมอง ดังชุน (คิม ฮยางกี) นำไปสู่การผจญภัยฝ่าขุมนรกแห่งบาปทั้ง 7 ที่ทั้งมนุษย์และทวยเทพต้องยำเกรง ซ่อนเร้นภยันตรายที่น่าสะพรึงกลัวได้แก่ นรกแห่งบาปฆาตกรรม, นรกแห่งบาปเกียจคร้าน, นรกแห่งบาปหลอกลวง, นรกแห่งบาปอยุติธรรม, นรกแห่งบาปทรยศ, นรกแห่งบาปความรุนแรง,นรกแห่งบาปอกตัญญู และผ่านด่านพิพากษาจาก ราชันย์ยอมรา (อี จุงแจ) เทพแห่งนรก เพื่อพิสูจน์ตัวตนให้กลับมาเกิดใหม่อีกครั้งภายในกำหนดเวลา 49 วันและในขณะเดียวกันเพื่อตามล่าสืบค้นเบื้องหลังปริศนาในตัวของคิม จาฮง เหล่าเทพผู้พิทักษ์จึงต้องเดินทางมายังโลกของมนุษย์เพื่อพิสูจน์ตัวตนที่แท้จริงของชีวิตที่พวกเขากำลังปกป้อง!!!

Complete name : [MINI Super-HQ]_Along.With.The.Gods.The.Two.Worlds.2017.1080p.BrRip.DTS.x264.One2loadup.com.mkv
Format : Matroska
Format version : Version 4 / Version 2
File size : 4.26 GiB
Duration : 2 h 19 min
Overall bit rate : 4 356 kb/s
Movie name : [MINI Super-HQ]_Along.With.The.Gods.The.Two.Worlds.2017.1080p.BrRip.DTS.x264.One2loadup.com
Encoded date : UTC 2010-02-22 21:41:31
Writing application : mkvmerge v5.9.0 (‘On The Loose’) built on Dec 9 2012 15:37:01
Writing library : libebml v1.3.0 + libmatroska v1.4.0

Video
ID : 1
Format : AVC
Format/Info : Advanced Video Codec
Format profile : [email protected]
Format settings : CABAC / 4 Ref Frames
Format settings, CABAC : Yes
Format settings, ReFrames : 4 frames
Codec ID : V_MPEG4/ISO/AVC
Duration : 2 h 19 min
Bit rate : 3 003 kb/s
Width : 1 920 pixels
Height : 804 pixels
Display aspect ratio : 2.40:1
Frame rate mode : Constant
Frame rate : 24.000 FPS
Color space : YUV
Chroma subsampling : 4:2:0
Bit depth : 8 bits
Scan type : Progressive
Bits/(Pixel*Frame) : 0.081
Stream size : 3.00 GiB (70%)
Title : [MINI Super-HQ]_Along.With.The.Gods.The.Two.Worlds.2017.1080p.BrRip.DTS.x264.One2loadup.com
Writing library : x264 core 130 r2273 b3065e6
Encoding settings : cabac=1 / ref=3 / deblock=1:0:0 / analyse=0x3:0x113 / me=umh / subme=11 / psy=1 / psy_rd=1.00:0.00 / mixed_ref=1 / me_range=48 / chroma_me=1 / trellis=2 / 8x8dct=1 / cqm=0 / deadzone=21,11 / fast_pskip=1 / chroma_qp_offset=-2 / threads=10 / lookahead_threads=1 / sliced_threads=0 / nr=0 / decimate=1 / interlaced=0 / bluray_compat=0 / constrained_intra=0 / bframes=3 / b_pyramid=2 / b_adapt=1 / b_bias=0 / direct=1 / weightb=1 / open_gop=0 / weightp=2 / keyint=240 / keyint_min=24 / scenecut=40 / intra_refresh=0 / rc_lookahead=40 / rc=2pass / mbtree=1 / bitrate=3003 / ratetol=1.0 / qcomp=0.60 / qpmin=0 / qpmax=69 / qpstep=4 / cplxblur=20.0 / qblur=0.5 / ip_ratio=1.40 / aq=1:1.00
Language : Korean
Default : Yes
Forced : No
Color range : Limited
Color primaries : BT.709
Transfer characteristics : BT.709
Matrix coefficients : BT.709

Audio #1
ID : 2
Format : AC-3
Format/Info : Audio Coding 3
Codec ID : A_AC3
Duration : 2 h 19 min
Bit rate mode : Constant
Bit rate : 448 kb/s
Channel(s) : 6 channels
Channel positions : Front: L C R, Side: L R, LFE
Sampling rate : 48.0 kHz
Frame rate : 31.250 FPS (1536 SPF)
Bit depth : 16 bits
Compression mode : Lossy
Stream size : 449 MiB (10%)
Title : Thai DVD Master
Language : Thai
Service kind : Complete Main
Default : Yes
Forced : Yes

Audio #2
ID : 3
Format : DTS
Format/Info : Digital Theater Systems
Codec ID : A_DTS
Duration : 2 h 19 min
Bit rate mode : Constant
Bit rate : 755 kb/s
Channel(s) : 6 channels
Channel positions : Front: L C R, Side: L R, LFE
Sampling rate : 48.0 kHz
Frame rate : 93.750 FPS (512 SPF)
Bit depth : 24 bits
Compression mode : Lossy
Stream size : 755 MiB (17%)
Title : Korean DTS
Language : Korean
Default : No
Forced : No

Text #1
ID : 4
Format : VobSub
Codec ID : S_VOBSUB
Codec ID/Info : Picture based subtitle format used on DVDs
Title : Thai 480p From DVD Master
Language : Thai
Default : No
Forced : No

Text #2
ID : 5
Format : VobSub
Codec ID : S_VOBSUB
Codec ID/Info : Picture based subtitle format used on DVDs
Title : Thai 720p
Language : Thai
Default : No
Forced : No

Text #3
ID : 6
Format : VobSub
Codec ID : S_VOBSUB
Codec ID/Info : Picture based subtitle format used on DVDs
Title : Thai 1080p
Language : Thai
Default : Yes
Forced : Yes

Text #4
ID : 7
Format : VobSub
Codec ID : S_VOBSUB
Codec ID/Info : Picture based subtitle format used on DVDs
Title : Thai 1080p Yellow
Language : Thai
Default : No
Forced : No

Text #5
ID : 8
Format : VobSub
Codec ID : S_VOBSUB
Codec ID/Info : Picture based subtitle format used on DVDs
Title : Thai 1080p Out
Language : Thai
Default : No
Forced : No

Text #6
ID : 9
Format : VobSub
Codec ID : S_VOBSUB
Codec ID/Info : Picture based subtitle format used on DVDs
Title : Thai 1080p BIG
Language : Thai
Default : No
Forced : No

Text #7
ID : 10
Format : VobSub
Codec ID : S_VOBSUB
Codec ID/Info : Picture based subtitle format used on DVDs
Title : Thai 1080p Out [BIG]
Language : Thai
Default : No
Forced : No

Text #8
ID : 11
Format : PGS
Codec ID : S_HDMV/PGS
Codec ID/Info : Picture based subtitle format used on BDs/HD-DVDs
Title : Thai PGS
Language : Thai
Default : No
Forced : No

Text #9
ID : 12
Format : PGS
Codec ID : S_HDMV/PGS
Codec ID/Info : Picture based subtitle format used on BDs/HD-DVDs
Title : Thai PGS Yellow
Language : Thai
Default : No
Forced : No

Text #10
ID : 13
Format : PGS
Codec ID : S_HDMV/PGS
Codec ID/Info : Picture based subtitle format used on BDs/HD-DVDs
Title : Thai PGS Out
Language : Thai
Default : No
Forced : No

Text #11
ID : 14
Format : PGS
Codec ID : S_HDMV/PGS
Codec ID/Info : Picture based subtitle format used on BDs/HD-DVDs
Title : English
Language : English
Default : No
Forced : No

DOWNLOAD


PART01 |||| PART02 |||| PART03 |||| PART04 |||| PART05

PART01 |||| PART02 |||| PART03 |||| PART04 |||| PART05

PART01 |||| PART02 |||| PART03 |||| PART04 |||| PART05

PART01 |||| PART02 |||| PART03 |||| PART04 |||| PART05

PART01 |||| PART02 |||| PART03 |||| PART04 |||| PART05


6 Comments
  1. 3 o y s c o u t z
    3 o y s c o u t z says

    Part2 – 5 เสียครับแอด 🙂

    1. Admin
      Admin says

      แก้ไขเรียบร้อยฮ๊ะ

  2. Soginho
    Soginho says

    Links เสียหมดเลยครับแอด

    1. Admin
      Admin says

      แก้ไขเรียบร้อยฮ๊ะ

  3. BOSSzz says

    ลิ้งเสียหมดเลยครับแอด

    1. Admin
      Admin says

      แก้ไขเรียบร้อยฮ๊ะ

Leave A Reply

อีเมล์ของคุณจะไม่แสดงให้เห็น Your email address will not be published.

%d bloggers like this: