[MINI Super-HQ] Vampire Cleanup Department (2017) ผีกัดอย่ากัดตอบ ตอน กัดได้แต่ห้ามจีบ [1080p] [พากย์ไทย 5.1 + เสียงจีน DTS] [บรรยายไทย + อังกฤษ] [เสียงไทย + ซับไทย] [PANDAFILE]

Vampire Cleanup Department (2017) ผีกัดอย่ากัดตอบ ตอน กัดได้แต่ห้ามจีบ

โหลดหนัง Vampire Cleanup Department (2017) ผีกัดอย่ากัดตอบ ตอน กัดได้แต่ห้ามจีบ 

Vampire Cleanup Department | March 16, 2017 (Hong Kong) Summary:
Countries: Hong KongLanguages: Cantonese

เรื่องย่อ Vampire Cleanup Department (2017) ผีกัดอย่ากัดตอบ ตอน กัดได้แต่ห้ามจีบ

Ghost Busters of Hong Kong Come Back! “Vampire Cleanup Department / ผีกัดอย่ากัดตอบ ตอน กัดได้แต่ห้ามจีบ”
หน่วยลับกำจัดผี หนังผีสไตล์โหดมันฮา แบบผีกัดอย่ากัดตอบ จากฮ่องกง หลังจากที่ก่อนหน้านี้มี Rigor Mortis หนังคารวะผีกัดอย่ากัดตอบ แต่เป็นการตีความแบบใหม่ ที่โหดและดราม่ามากขึ้น ภาพยนตร์เรื่องนี้ประสบความสำเร็จในแง่การสร้างความประทับใจมากกับความกระตือรือร้นและการสร้างภาพยนตร์ที่สร้างขึ้นมาอย่างดีเยี่ยมงานคอมพิวเตอร์กราฟิกของพวกเขาคล้ายกับแวมไพร์ในการรีบูต Fright Night (2011) และ Let Me In (2010)!!!

“Vampire Cleanup Department / ผีกัดอย่ากัดตอบ ตอน กัดได้แต่ห้ามจีบ” Tim Cheung หนุ่ม geek ที่ได้รับการช่วยเหลือจากหน่วย Vampire Cleanup Department จึงทำให้เขารู้ความจริงว่าครอบครัวของเขาเป็นนักล่าแวมไพร์ฝีมือยอดเยี่ยมแห่งฮ่องกงอยู่ในหน่วยลับกำจัดแวมไพร์ โดยกลางวันปลอมตัวเป็นคนกวาดขยะและพอยามค่ำคืนก็เปลี่ยนโรงขยะให้กลายเป็นหน่วยกำจัดแวมไพร์เพื่อปกป้องฮ่องกงให้ปลอดภัยจากเหล่าแวมไพร์ที่คอยคุกคามมาเป็นเวลาหลายร้อยปีจากหนุ่ม geek ก็ถูกฝึกให้เป็นนักล่าแวมไพร์ จนกระทั่งเขาไปสงสารแวมไพร์สาวและแหกกฎไปใช้ชีวิตอยู่ด้วยกันโดยไม่รู้เลยว่าความสัมพันธ์นี้จะทำให้ฮ่องกงตกอยู่ในอันตราย

Complete name : [MINI Super-HQ]_Vampire.Cleanup.Department.2017.1080p.BrRip.DTS.x264.One2loadup.com.mkv
Format : Matroska
Format version : Version 4 / Version 2
File size : 3.90 GiB
Duration : 1 h 33 min
Overall bit rate : 5 956 kb/s
Movie name : [MINI Super-HQ]_Vampire.Cleanup.Department.2017.1080p.BrRip.DTS.x264.One2loadup.com
Encoded date : UTC 2010-02-22 21:41:31
Writing application : mkvmerge v5.9.0 (‘On The Loose’) built on Dec 9 2012 15:37:01
Writing library : libebml v1.3.0 + libmatroska v1.4.0

Video
ID : 1
Format : AVC
Format/Info : Advanced Video Codec
Format profile : [email protected]
Format settings : CABAC / 4 Ref Frames
Format settings, CABAC : Yes
Format settings, ReFrames : 4 frames
Codec ID : V_MPEG4/ISO/AVC
Duration : 1 h 33 min
Bit rate : 4 647 kb/s
Width : 1 920 pixels
Height : 1 038 pixels
Display aspect ratio : 1.85:1
Frame rate mode : Constant
Frame rate : 24.000 FPS
Color space : YUV
Chroma subsampling : 4:2:0
Bit depth : 8 bits
Scan type : Progressive
Bits/(Pixel*Frame) : 0.097
Stream size : 3.04 GiB (78%)
Title : [MINI Super-HQ]_Vampire.Cleanup.Department.2017.1080p.BrRip.DTS.x264.One2loadup.com
Writing library : x264 core 130 r2273 b3065e6
Encoding settings : cabac=1 / ref=3 / deblock=1:0:0 / analyse=0x3:0x113 / me=umh / subme=11 / psy=1 / psy_rd=1.00:0.00 / mixed_ref=1 / me_range=48 / chroma_me=1 / trellis=2 / 8x8dct=1 / cqm=0 / deadzone=21,11 / fast_pskip=1 / chroma_qp_offset=-2 / threads=24 / lookahead_threads=2 / sliced_threads=0 / nr=0 / decimate=1 / interlaced=0 / bluray_compat=0 / constrained_intra=0 / bframes=3 / b_pyramid=2 / b_adapt=1 / b_bias=0 / direct=1 / weightb=1 / open_gop=0 / weightp=2 / keyint=240 / keyint_min=24 / scenecut=40 / intra_refresh=0 / rc_lookahead=40 / rc=2pass / mbtree=1 / bitrate=4647 / ratetol=1.0 / qcomp=0.60 / qpmin=0 / qpmax=69 / qpstep=4 / cplxblur=20.0 / qblur=0.5 / ip_ratio=1.40 / aq=1:1.00
Language : Chinese
Default : Yes
Forced : No
Color range : Limited
Color primaries : BT.709
Transfer characteristics : BT.709
Matrix coefficients : BT.709

Audio #1
ID : 2
Format : AC-3
Format/Info : Audio Coding 3
Codec ID : A_AC3
Duration : 1 h 33 min
Bit rate mode : Constant
Bit rate : 448 kb/s
Channel(s) : 6 channels
Channel positions : Front: L C R, Side: L R, LFE
Sampling rate : 48.0 kHz
Frame rate : 31.250 FPS (1536 SPF)
Bit depth : 16 bits
Compression mode : Lossy
Stream size : 301 MiB (8%)
Title : Thai DVD Master
Language : Thai
Service kind : Complete Main
Default : Yes
Forced : Yes

Audio #2
ID : 3
Format : DTS
Format/Info : Digital Theater Systems
Codec ID : A_DTS
Duration : 1 h 33 min
Bit rate mode : Constant
Bit rate : 755 kb/s
Channel(s) : 6 channels
Channel positions : Front: L C R, Side: L R, LFE
Sampling rate : 48.0 kHz
Frame rate : 93.750 FPS (512 SPF)
Bit depth : 24 bits
Compression mode : Lossy
Stream size : 506 MiB (13%)
Title : Chinese DTS
Language : Chinese
Default : No
Forced : No

Text #1
ID : 4
Format : VobSub
Codec ID : S_VOBSUB
Codec ID/Info : Picture based subtitle format used on DVDs
Title : Thai 480p From DVD Master
Language : Thai
Default : No
Forced : No

Text #2
ID : 5
Format : VobSub
Codec ID : S_VOBSUB
Codec ID/Info : Picture based subtitle format used on DVDs
Title : Thai 720p
Language : Thai
Default : No
Forced : No

Text #3
ID : 6
Format : VobSub
Codec ID : S_VOBSUB
Codec ID/Info : Picture based subtitle format used on DVDs
Title : Thai 1080p
Language : Thai
Default : Yes
Forced : Yes

Text #4
ID : 7
Format : VobSub
Codec ID : S_VOBSUB
Codec ID/Info : Picture based subtitle format used on DVDs
Title : Thai 1080p Yellow
Language : Thai
Default : No
Forced : No

Text #5
ID : 8
Format : VobSub
Codec ID : S_VOBSUB
Codec ID/Info : Picture based subtitle format used on DVDs
Title : Thai 1080p BIG
Language : Thai
Default : No
Forced : No

Text #6
ID : 9
Format : PGS
Codec ID : S_HDMV/PGS
Codec ID/Info : Picture based subtitle format used on BDs/HD-DVDs
Title : Thai PGS
Language : Thai
Default : No
Forced : No

Text #7
ID : 10
Format : PGS
Codec ID : S_HDMV/PGS
Codec ID/Info : Picture based subtitle format used on BDs/HD-DVDs
Title : Thai PGS Yellow
Language : Thai
Default : No
Forced : No

Text #8
ID : 11
Format : PGS
Codec ID : S_HDMV/PGS
Codec ID/Info : Picture based subtitle format used on BDs/HD-DVDs
Title : English
Language : English
Default : No
Forced : No

DOWNLOAD


PART01 |||| PART02 |||| PART03 |||| PART04

PART01 |||| PART02 |||| PART03 |||| PART04

PART01 |||| PART02 |||| PART03 |||| PART04

PART01 |||| PART02 |||| PART03 |||| PART04


2 Comments
  1. Captain Barbossa
    Captain Barbossa says

    โหลดไม่ได้ครับ

    1. Admin
      Admin says

      แก้ไขเรียบร้อยฮ๊ะ

Comments are closed.

%d bloggers like this: