[MINI Super-HQ] Alita: Battle Angel (2019) อลิตา แบทเทิล แองเจิ้ล [1080p] [พากย์ไทย 5.1 + เสียงอังกฤษ DTS] [บรรยายไทย + อังกฤษ] [เสียงไทย + ซับไทย] [OPENLOAD]

2

Alita: Battle Angel (2019)

โหลดหนัง Alita: Battle Angel (2019) อลิตา แบทเทิล แองเจิ้ล

Alita: Battle Angel (2019) 2h 2min | Action, Adventure, Sci-Fi | 14 February 2019 (Canada) Summary: A deactivated female cyborg is revived, but cannot remember anything of her past life and goes on a quest to find out who she is.
Countries: USALanguages: English, Spanish

เรื่องย่อ Alita: Battle Angel (2019) อลิตา แบทเทิล แองเจิ้ล

ภาพยนตร์ดัดแปลงจากการ์ตูนญี่ปุ่นเรื่อง เพชฌฆาตไซบอร์ก หรือในชื่อญี่ปุ่นว่า Gunnm ซึ่งเขียนโดย คิชิโระ ยูกิโตะและได้รับการดัดแปลงเป็นแอนิเมชั่นจากเนื้อเรื่องในหนังสือเล่มแรก ๆในชื่อ Battle Angel เรื่องราวเกิดขึ้นในอนาคตอันไกลโพ้นซึ่งไซบอร์คและหุ่นยนตร์กลายเป็นเรื่องปกติ เมืองลอยฟ้าทิฟาเรส เก็บงำความลับอันดำมืด มันทิ้งขยะไร้ค่าลงสู่โล่งเบื้องล่างและที่ลานทิ้งขยะนั้นเอง แพทย์ไซบอร์ค อิโดะ พบเข้ากับชิ้นส่วนหัวและลำตัวของเด็กสาวไซบอร์คที่ยังมีชีวิตอยู่ได้มีเพียงสมองของเธอเท่านั้นที่เป็นมนุษย์ ส่วนอื่นในร่างกายของเธอล้วนเป็นเครื่องจักร เธอสูญเสียความทรงจำทั้งหมดในอดีตและได้ชื่อใหม่จากอิโดะ เอลิตา เขาสร้างเธอขึ้นมาใหม่อีกครั้งและกลายเป็นเสมือนบิดาของเธอในฐานะผู้มอบร่างกายใหม่ให้อย่างไรก็ตาม ข่าวการฆาตกรรมต่อเนื่องได้เริ่มแพร่กระจายไปในเมือง อลิตาเริ่มสงสัยอิโดะในฐานะผู้ลงมือเพื่อหาชิ้นส่วนร ่างกายให้เธอแต่เมื่อเธอติดตามเขาออกไปในคืนหนึ่ง จึงได้พบว่าที่แท้เขากำลังตามจับตัวฆาตกร ภายใต้ฐานะ ฮันเตอร์ วอร์ริเออร์ ที่เขาได้รับมอบหมายมา ระหว่างการเข้าปะทะกับฆาตกรตัวจริงนั้น สัญชาติญาณของเด็กสาวก็ทำงาน เธอล้มฆาตกรได้ด้วยศิลปะการต่อสู้โบราณผลสุดท้าย เธอจึงตัดสินใจเข้าช่วยเหลืออิโดะในการพิทักษ์ความยุ ติธรรม และได้กลายมาเป็นฮันเตอร์วอร์ริเออร์เช่นกันเธอปลดล็อคความสามารถและพลังที่แท้จริงของตนเอง เข้าต่อสู้กับศัตรูที่แสนอันตราย และเพื่อนผู้ยึดมั่นในอุดมการณ์!!!

Complete name : [MINI Super-HQ]_Alita.Battle.Angel.2019.1080p.BrRip.DTS.x264.One2loadup.com.mkv
Format : Matroska
Format version : Version 4
File size : 3.85 GiB
Duration : 2 h 1 min
Overall bit rate : 4 521 kb/s
Movie name : [MINI Super-HQ]_Alita.Battle.Angel.2019.1080p.BrRip.DTS.x264.One2loadup.com
Encoded date : UTC 2010-02-22 21:41:31
Writing application : mkvmerge v5.9.0 (‘On The Loose’) built on Dec 9 2012 15:37:01
Writing library : libebml v1.3.0 + libmatroska v1.4.0

Video
ID : 1
Format : AVC
Format/Info : Advanced Video Codec
Format profile : [email protected]
Format settings : CABAC / 4 Ref Frames
Format settings, CABAC : Yes
Format settings, ReFrames : 4 frames
Codec ID : V_MPEG4/ISO/AVC
Duration : 2 h 1 min
Bit rate : 3 173 kb/s
Width : 1 920 pixels
Height : 804 pixels
Display aspect ratio : 2.40:1
Frame rate mode : Constant
Frame rate : 23.976 (24000/1001) FPS
Color space : YUV
Chroma subsampling : 4:2:0
Bit depth : 8 bits
Scan type : Progressive
Bits/(Pixel*Frame) : 0.086
Stream size : 2.75 GiB (71%)
Title : [MINI Super-HQ]_Alita.Battle.Angel.2019.1080p.BrRip.DTS.x264.One2loadup.com
Writing library : x264 core 146 r2538 121396c
Encoding settings : cabac=1 / ref=5 / deblock=1:-3:-3 / analyse=0x3:0x133 / me=tesa / subme=11 / psy=1 / psy_rd=1.00:0.15 / mixed_ref=1 / me_range=48 / chroma_me=1 / trellis=2 / 8x8dct=1 / cqm=0 / deadzone=21,11 / fast_pskip=1 / chroma_qp_offset=-3 / threads=54 / lookahead_threads=4 / sliced_threads=0 / nr=0 / decimate=1 / interlaced=0 / bluray_compat=1 / constrained_intra=0 / bframes=3 / b_pyramid=1 / b_adapt=2 / b_bias=0 / direct=3 / weightb=1 / open_gop=0 / weightp=1 / keyint=250 / keyint_min=1 / scenecut=40 / intra_refresh=0 / rc_lookahead=60 / rc=2pass / mbtree=1 / bitrate=3173 / ratetol=1.0 / qcomp=0.60 / qpmin=0 / qpmax=69 / qpstep=4 / cplxblur=20.0 / qblur=0.5 / ip_ratio=1.40 / aq=1:1.30
Language : English
Default : Yes
Forced : No

Audio #1
ID : 2
Format : AC-3
Format/Info : Audio Coding 3
Commercial name : Dolby Digital
Codec ID : A_AC3
Duration : 2 h 1 min
Bit rate mode : Constant
Bit rate : 448 kb/s
Channel(s) : 6 channels
Channel layout : L R C LFE Ls Rs
Sampling rate : 48.0 kHz
Frame rate : 31.250 FPS (1536 SPF)
Bit depth : 16 bits
Compression mode : Lossy
Stream size : 391 MiB (10%)
Title : Thai BluRay Master
Language : Thai
Service kind : Complete Main
Default : Yes
Forced : Yes

Audio #2
ID : 3
Format : DTS
Format/Info : Digital Theater Systems
Codec ID : A_DTS
Duration : 2 h 1 min
Bit rate mode : Constant
Bit rate : 755 kb/s
Channel(s) : 6 channels
Channel layout : C L R Ls Rs LFE
Sampling rate : 48.0 kHz
Frame rate : 93.750 FPS (512 SPF)
Bit depth : 24 bits
Compression mode : Lossy
Stream size : 658 MiB (17%)
Title : English DTS
Language : English
Default : No
Forced : No

Text #1
ID : 4
Format : VobSub
Codec ID : S_VOBSUB
Codec ID/Info : Picture based subtitle format used on DVDs
Title : Thai 480p
Language : Thai
Default : No
Forced : No

Text #2
ID : 5
Format : VobSub
Codec ID : S_VOBSUB
Codec ID/Info : Picture based subtitle format used on DVDs
Title : Thai 720p
Language : Thai
Default : No
Forced : No

Text #3
ID : 6
Format : VobSub
Codec ID : S_VOBSUB
Codec ID/Info : Picture based subtitle format used on DVDs
Title : Thai 1080p Master
Language : Thai
Default : No
Forced : No

Text #4
ID : 7
Format : VobSub
Codec ID : S_VOBSUB
Codec ID/Info : Picture based subtitle format used on DVDs
Title : Thai 1080p Yellow
Language : Thai
Default : No
Forced : No

Text #5
ID : 8
Format : VobSub
Codec ID : S_VOBSUB
Codec ID/Info : Picture based subtitle format used on DVDs
Title : Thai 1080p Out
Language : Thai
Default : No
Forced : No

Text #6
ID : 9
Format : VobSub
Codec ID : S_VOBSUB
Codec ID/Info : Picture based subtitle format used on DVDs
Title : Thai 1080p BIG
Language : Thai
Default : No
Forced : No

Text #7
ID : 10
Format : VobSub
Codec ID : S_VOBSUB
Codec ID/Info : Picture based subtitle format used on DVDs
Title : Thai 1080p Out [BIG]
Language : Thai
Default : No
Forced : No

Text #8
ID : 11
Format : PGS
Codec ID : S_HDMV/PGS
Codec ID/Info : Picture based subtitle format used on BDs/HD-DVDs
Title : Thai PGS BluRay Master
Language : Thai
Default : Yes
Forced : Yes

Text #9
ID : 12
Format : PGS
Codec ID : S_HDMV/PGS
Codec ID/Info : Picture based subtitle format used on BDs/HD-DVDs
Title : Thai PGS Yellow
Language : Thai
Default : No
Forced : No

Text #10
ID : 13
Format : PGS
Codec ID : S_HDMV/PGS
Codec ID/Info : Picture based subtitle format used on BDs/HD-DVDs
Title : Thai PGS Out
Language : Thai
Default : No
Forced : No

Text #11
ID : 14
Format : PGS
Codec ID : S_HDMV/PGS
Codec ID/Info : Picture based subtitle format used on BDs/HD-DVDs
Title : English
Language : English
Default : No
Forced : No

Menu
00:00:00.000 : en:Chapter 1
00:00:27.027 : en:Chapter 2
00:05:23.032 : en:Chapter 3
00:13:08.037 : en:Chapter 4
00:18:06.043 : en:Chapter 5
00:23:00.045 : en:Chapter 6
00:25:40.080 : en:Chapter 7
00:33:30.050 : en:Chapter 8
00:36:34.067 : en:Chapter 9
00:37:47.015 : en:Chapter 10
00:38:32.060 : en:Chapter 11
00:41:07.007 : en:Chapter 12
00:45:59.048 : en:Chapter 13
00:48:32.033 : en:Chapter 14
00:52:58.050 : en:Chapter 15
00:55:16.022 : en:Chapter 16
01:02:58.067 : en:Chapter 17
01:10:24.012 : en:Chapter 18
01:16:36.050 : en:Chapter 19
01:18:53.020 : en:Chapter 20
01:22:50.048 : en:Chapter 21
01:24:57.008 : en:Chapter 22
01:28:26.050 : en:Chapter 23
01:36:10.015 : en:Chapter 24
01:38:42.000 : en:Chapter 25
01:43:29.078 : en:Chapter 26
01:44:46.030 : en:Chapter 27
01:51:45.073 : en:Chapter 28
01:54:31.032 : en:Chapter 29
01:56:53.007 : en:Chapter 30
01:56:56.008 : en:Chapter 31

DOWNLOAD


PART01 |||| PART02 |||| PART03 |||| PART04

PART01 |||| PART02 |||| PART03 |||| PART04

PART01 |||| PART02 |||| PART03 |||| PART04

PART01 |||| PART02 |||| PART03 |||| PART04


2 Comments
  1. Rayan Cooper
    Rayan Cooper says

    Version i-max มาหรือยังจ้า???

    1. Admin
      Admin says

      ลงให้แล้วฮ๊ะ

Leave A Reply

Your email address will not be published.

%d bloggers like this: