[MINI Super-HQ] A Beautiful Day in the Neighborhood (2019) เรื่องเล่าวันฟ้าสวย [1080p] [พากย์ไทย 2.0 + เสียงอังกฤษ DTS] [บรรยายไทย + อังกฤษ] [เสียงไทยมาสเตอร์ + ซับไทย] [PANDAFILE]

0

โหลดหนัง A Beautiful Day in the Neighborhood (2019) เรื่องเล่าวันฟ้าสวย

Der wunderbare Mr. Rogers (2019) 1h 49min | Biography, Drama | 22 November 2019 (USA) Summary: Based on the true story of a real-life friendship between Fred Rogers and journalist Lloyd Vogel.
Countries: China, USALanguages: English

เรื่องย่อ A Beautiful Day in the Neighborhood (2019) เรื่องเล่าวันฟ้าสวย

สร้างมาจากเรื่องจริงของ Fred Rogers ชายผู้ที่ชาวอเมริกาเรียกกันว่าเพื่อนบ้านคนโปรด นิสัยดี ใจดี โอบอ้อมอารี และเป็นมิตรที่สุดในโลกคนนึง ตัวหนังได้บอกเล่าเรื่องราวของเขาที่ได้ถูกนักเขียนอารมณ์ร้อนรายหนึ่ง Lloyd Vogel ไปสัมภาษณ์เพื่อเขียนคอลัมน์ลงนิตยสารแต่เมื่อเขาได้พบ Rogers ชีวิตของเขาก็เปลี่ยนไปตลอดกาล!!!

Complete name : [MINI Super-HQ]_A.Beautiful.Day.in.the.Neighborhood.2019.1080p.BrRip.DTS.x264.THM.One2loadup.com.mkv
Format : Matroska
Format version : Version 4
File size : 3.71 GiB
Duration : 1 h 48 min
Overall bit rate : 4 883 kb/s
Movie name : [MINI Super-HQ]_A.Beautiful.Day.in.the.Neighborhood.2019.1080p.BrRip.DTS.x264.THM.One2loadup.com
Encoded date : UTC 2020-04-17 17:38:51
Writing application : mkvmerge v9.8.0 (‘Kuglblids’) 64bit
Writing library : libebml v1.3.4 + libmatroska v1.4.5

Video
ID : 1
Format : AVC
Format/Info : Advanced Video Codec
Format profile : [email protected]
Format settings : CABAC / 4 Ref Frames
Format settings, CABAC : Yes
Format settings, ReFrames : 4 frames
Codec ID : V_MPEG4/ISO/AVC
Duration : 1 h 48 min
Bit rate : 3 597 kb/s
Width : 1 920 pixels
Height : 1 038 pixels
Display aspect ratio : 1.85:1
Frame rate mode : Constant
Frame rate : 23.976 (24000/1001) FPS
Color space : YUV
Chroma subsampling : 4:2:0
Bit depth : 8 bits
Scan type : Progressive
Bits/(Pixel*Frame) : 0.075
Stream size : 2.73 GiB (74%)
Title : [MINI Super-HQ]_A.Beautiful.Day.in.the.Neighborhood.2019.1080p.BrRip.DTS.x264.THM.One2loadup.com
Language : English
Default : Yes
Forced : Yes

Audio #1
ID : 2
Format : AC-3
Format/Info : Audio Coding 3
Commercial name : Dolby Digital
Codec ID : A_AC3
Duration : 1 h 48 min
Bit rate mode : Constant
Bit rate : 384 kb/s
Channel(s) : 2 channels
Channel layout : L R
Sampling rate : 48.0 kHz
Frame rate : 31.250 FPS (1536 SPF)
Bit depth : 16 bits
Compression mode : Lossy
Stream size : 299 MiB (8%)
Title : Thai Master
Language : Thai
Service kind : Complete Main
Default : Yes
Forced : Yes

Audio #2
ID : 3
Format : DTS
Format/Info : Digital Theater Systems
Codec ID : A_DTS
Duration : 1 h 48 min
Bit rate mode : Constant
Bit rate : 755 kb/s
Channel(s) : 6 channels
Channel layout : C L R Ls Rs LFE
Sampling rate : 48.0 kHz
Frame rate : 93.750 FPS (512 SPF)
Bit depth : 24 bits
Compression mode : Lossy
Stream size : 587 MiB (15%)
Title : English DTS
Language : English
Default : No
Forced : No

Text #1
ID : 4
Format : VobSub
Codec ID : S_VOBSUB
Codec ID/Info : Picture based subtitle format used on DVDs
Duration : 33 s 314 ms
Bit rate : 2 967 b/s
Count of elements : 1
Stream size : 12.1 KiB (0%)
Title : Thai
Language : Thai
Default : No
Forced : Yes

Text #2
ID : 5
Format : VobSub
Codec ID : S_VOBSUB
Codec ID/Info : Picture based subtitle format used on DVDs
Duration : 1 h 47 min
Bit rate : 3 471 b/s
Count of elements : 1243
Stream size : 2.68 MiB (0%)
Title : Thai 720p
Language : Thai
Default : No
Forced : No

Text #3
ID : 6
Format : VobSub
Codec ID : S_VOBSUB
Codec ID/Info : Picture based subtitle format used on DVDs
Duration : 1 h 47 min
Bit rate : 6 151 b/s
Count of elements : 1243
Stream size : 4.75 MiB (0%)
Title : Thai 1080p
Language : Thai
Default : No
Forced : No

Text #4
ID : 7
Format : VobSub
Codec ID : S_VOBSUB
Codec ID/Info : Picture based subtitle format used on DVDs
Duration : 1 h 47 min
Bit rate : 6 142 b/s
Count of elements : 1243
Stream size : 4.74 MiB (0%)
Title : Thai 1080p Yellow
Language : Thai
Default : No
Forced : No

Text #5
ID : 8
Format : PGS
Codec ID : S_HDMV/PGS
Codec ID/Info : Picture based subtitle format used on BDs/HD-DVDs
Duration : 1 h 47 min
Bit rate : 23.9 kb/s
Count of elements : 2486
Stream size : 18.5 MiB (0%)
Title : Thai 1080p PGS
Language : Thai
Default : No
Forced : No

Text #6
ID : 9
Format : PGS
Codec ID : S_HDMV/PGS
Codec ID/Info : Picture based subtitle format used on BDs/HD-DVDs
Duration : 1 h 47 min
Bit rate : 18.2 kb/s
Count of elements : 2486
Stream size : 14.0 MiB (0%)
Title : Thai 1080p Yellow PGS
Language : Thai
Default : No
Forced : No

Text #7
ID : 10
Format : PGS
Codec ID : S_HDMV/PGS
Codec ID/Info : Picture based subtitle format used on BDs/HD-DVDs
Duration : 1 h 47 min
Bit rate : 24.0 kb/s
Count of elements : 2490
Stream size : 18.5 MiB (0%)
Title : Thai PGS BluRay Master
Language : Thai
Default : No
Forced : No

Text #8
ID : 11
Format : PGS
Codec ID : S_HDMV/PGS
Codec ID/Info : Picture based subtitle format used on BDs/HD-DVDs
Duration : 1 h 47 min
Bit rate : 33.5 kb/s
Count of elements : 2784
Stream size : 25.7 MiB (1%)
Title : English
Language : English
Default : No
Forced : No

Text #9
ID : 12
Format : PGS
Codec ID : S_HDMV/PGS
Codec ID/Info : Picture based subtitle format used on BDs/HD-DVDs
Duration : 1 h 43 min
Bit rate : 31.8 kb/s
Count of elements : 2548
Stream size : 23.5 MiB (1%)
Title : English
Language : English
Default : No
Forced : No

Menu
00:00:00.000 : 01
00:07:00.128 : 02
00:14:17.231 : 03
00:20:55.837 : 04
00:30:32.747 : 05
00:37:31.040 : 06
00:45:50.581 : 07
00:50:13.635 : 08
00:57:34.451 : 09
01:03:19.462 : 10
01:07:26.834 : 11
01:10:36.982 : 12
01:14:31.133 : 13
01:17:33.482 : 14
01:28:54.620 : 15
01:37:27.925 : 16

DOWNLOAD


PART01 |||| PART02 |||| PART03 |||| PART04

PART01 |||| PART02 |||| PART03 |||| PART04

PART01 |||| PART02 |||| PART03 |||| PART04

PART01 |||| PART02 |||| PART03 |||| PART04

PART01 |||| PART02 |||| PART03 |||| PART04


Disable Comments
%d bloggers like this: