[MINI-HD] Underworld: Rise of the Lycans (2009) สงครามโค่นพันธุ์อสูร 3: ปลดแอกจอมทัพอสูร [720p] [พากย์ไทย 5.1 + เสียงอังกฤษ 5.1] [บรรยายไทย + อังกฤษ] [เสียงไทย + ซับไทย] [Modified] [PANDAFILE]

3

Underworld: Rise of the Lycans (2009) สงครามโค่นพันธุ์อสูร: ปลดแอกจอมทัพอสูร

โหลดหนัง Underworld: Rise of the Lycans (2009) สงครามโค่นพันธุ์อสูร 3: ปลดแอกจอมทัพอสูร

Underworld: Rise of the Lycans | January 23, 2009 (United States) Summary: An origins story centered on the centuries-old feud between the race of aristocratic vampires and their onetime slaves, the Lycans.
Countries: United States, New ZealandLanguages: English

เรื่องย่อ Underworld: Rise of the Lycans (2009) สงครามโค่นพันธุ์อสูร 3: ปลดแอกจอมทัพอสูร

กำเนิดวีรบุรุษ จุดเริ่มแห่งตำนาน สู่ปฐมบทแห่งมหาสงคราม ในภาคที่ 3 ของภาพยนตร์แอ็คชั่นสุดระทึก “สงครามโค่นพันธุ์อสูร” เล่าเรื่องย้อนกลับไปสู่จุดเริ่มต้นเมื่อหลายศตวรรษก ่อนของสงครามระหว่างแวมไพร์ผู้สูงศักดิ์กับเหล่าไลแค นที่ครั้งหนึ่งเคยเป็นทาสของพวกเขา! ในยุคแห่งความมืดมิด ไลแคนหนุ่มนาม ลูเชียน (ไมเคิล ชีน) ลุกขึ้นเป็นผู้นำที่แข็งแกร่งปลุกเร้าเหล่ามนุษย์หมา ป่าให้ต่อต้าน วิคเตอร์ ราชาแวมไพร์ผู้อำมหิต (บิล ไนท์ฮี) ที่กดขี่ไลแคนให้ตกเป็นทาส ซึ่งครั้งนี้ลูเชี่ยนได้รับความร่วมมือจากซอนย่า (โรนา มิทรา) คนรักลับๆ ของเขาในการทำศึกกับกองทัพแวมไพร์ เพื่อปลดแอกเผ่าพันธุ์มนุษย์หมาป่าให้เป็นอิสระ

Complete name : [MINI-HD]_Underworld.Rise.of.the.Lycans.2009.720p.AC3.x264.One2loadup.com.mkv
Format : Matroska
Format version : Version 2
File size : 3.43 GiB
Duration : 1 h 32 min
Overall bit rate mode : Variable
Overall bit rate : 5 317 kb/s
Movie name : [MINI-HD]_Underworld.Rise.of.the.Lycans.2009.720p.AC3.x264.One2loadup.com
Encoded date : UTC 2012-07-24 14:41:45
Writing application : mkvmerge v3.4.0 (‘Rapunzel’) built on May 15 2010 09:38:20
Writing library : libebml v0.8.0 + libmatroska v0.9.0

Video
ID : 1
Format : AVC
Format/Info : Advanced Video Codec
Format profile : [email protected]
Format settings, CABAC : Yes
Format settings, RefFrames : 16 frames
Codec ID : V_MPEG4/ISO/AVC
Duration : 1 h 32 min
Bit rate mode : Variable
Bit rate : 4 540 kb/s
Maximum bit rate : 300 Mb/s
Width : 1 280 pixels
Height : 534 pixels
Display aspect ratio : 2.40:1
Frame rate mode : Constant
Frame rate : 23.976 (24000/1001) FPS
Color space : YUV
Chroma subsampling : 4:2:0
Bit depth : 8 bits
Scan type : Progressive
Bits/(Pixel*Frame) : 0.277
Stream size : 2.87 GiB (84%)
Title : [MINI-HD]_Underworld.Rise.of.the.Lycans.2009.720p.AC3.x264.One2loadup.com
Writing library : x264 core 125 r2200 999b753
Encoding settings : cabac=1 / ref=16 / deblock=1:0:0 / analyse=0x3:0x133 / me=umh / subme=10 / psy=1 / psy_rd=1.00:0.00 / mixed_ref=1 / me_range=24 / chroma_me=1 / trellis=2 / 8x8dct=1 / cqm=0 / deadzone=21,11 / fast_pskip=1 / chroma_qp_offset=-2 / threads=9 / lookahead_threads=1 / sliced_threads=0 / nr=0 / decimate=1 / interlaced=0 / bluray_compat=0 / constrained_intra=0 / bframes=3 / b_pyramid=0 / b_adapt=2 / b_bias=0 / direct=3 / weightb=1 / open_gop=0 / weightp=2 / keyint=240 / keyint_min=24 / scenecut=40 / intra_refresh=0 / rc_lookahead=60 / rc=2pass / mbtree=1 / bitrate=4540 / ratetol=1.0 / qcomp=0.60 / qpmin=0 / qpmax=69 / qpstep=4 / cplxblur=20.0 / qblur=0.5 / vbv_maxrate=300000 / vbv_bufsize=300000 / nal_hrd=vbr / ip_ratio=1.40 / aq=1:1.00
Language : English
Default : Yes
Forced : No

Audio #1
ID : 2
Format : AC-3
Format/Info : Audio Coding 3
Format settings, Endianness : Big
Codec ID : A_AC3
Duration : 1 h 32 min
Bit rate mode : Constant
Bit rate : 384 kb/s
Channel(s) : 6 channels
Channel positions : Front: L C R, Side: L R, LFE
Sampling rate : 48.0 kHz
Frame rate : 31.250 FPS (1536 SPF)
Bit depth : 16 bits
Compression mode : Lossy
Stream size : 254 MiB (7%)
Title : ac3 6ch master
Language : Thai
Service kind : Complete Main
Default : Yes
Forced : No

Audio #2
ID : 3
Format : AC-3
Format/Info : Audio Coding 3
Format settings, Endianness : Big
Codec ID : A_AC3
Duration : 1 h 32 min
Bit rate mode : Constant
Bit rate : 384 kb/s
Channel(s) : 6 channels
Channel positions : Front: L C R, Side: L R, LFE
Sampling rate : 48.0 kHz
Frame rate : 31.250 FPS (1536 SPF)
Bit depth : 16 bits
Compression mode : Lossy
Stream size : 254 MiB (7%)
Title : ac3 6ch master
Language : English
Service kind : Complete Main
Default : No
Forced : No

Text #1
ID : 4
Format : VobSub
Muxing mode : zlib
Codec ID : S_VOBSUB
Codec ID/Info : Picture based subtitle format used on DVDs
Title : master
Language : Thai
Default : No
Forced : No

Text #2
ID : 5
Format : VobSub
Muxing mode : zlib
Codec ID : S_VOBSUB
Codec ID/Info : Picture based subtitle format used on DVDs
Title : master
Language : Thai
Default : No
Forced : No

Text #3
ID : 6
Format : VobSub
Muxing mode : zlib
Codec ID : S_VOBSUB
Codec ID/Info : Picture based subtitle format used on DVDs
Title : master
Language : Thai
Default : No
Forced : No

Text #4
ID : 7
Format : VobSub
Muxing mode : zlib
Codec ID : S_VOBSUB
Codec ID/Info : Picture based subtitle format used on DVDs
Title : master
Language : English
Default : No
Forced : No

Text #5
ID : 8
Format : VobSub
Muxing mode : zlib
Codec ID : S_VOBSUB
Codec ID/Info : Picture based subtitle format used on DVDs
Title : master
Language : English
Default : No
Forced : No

 

DOWNLOAD


PART01 |||| PART02 |||| PART03 |||| PART04

PART01 |||| PART02 |||| PART03 |||| PART04

PART01 |||| PART02 |||| PART03 |||| PART04

PART01 |||| PART02 |||| PART03 |||| PART04

PART01 |||| PART02 |||| PART03 |||| PART04


3 Comments
  1. Cen Zang
    Cen Zang says

    โหลดไม่ได้ซักเซิร์ฟเลยจ้าแอด

    1. Admin
      Admin says

      แก้ไขเรียบร้อยฮ๊ะ

      1. Cen Zang
        Cen Zang says

        ขอบคุณมากๆ จ้า

Leave A Reply

อีเมล์ของคุณจะไม่แสดงให้เห็น Your email address will not be published.

%d bloggers like this: