[MINI-HD] Underworld: Awakening (2012) สงครามโค่นพันธุ์อสูร 4: กำเนิดใหม่ราชินีแวมไพร์ [720p] [พากย์ไทย 5.1 + เสียงอังกฤษ 5.1] [บรรยายไทย + อังกฤษ] [เสียงไทย + ซับไทย] [Modified] [PANDAFILE]

5

โหลดหนัง Underworld: Awakening (2012) สงครามโค่นพันธุ์อสูร 4: กำเนิดใหม่ราชินีแวมไพร์

Underworld: Awakening | January 20, 2012 (United States) Summary: When human forces discover the existence of the Vampire and Lycan clans, a war to eradicate both species commences. The vampire warrior Selene leads the battle against humankind.
Countries: United States, CanadaLanguages: English, Russian

เรื่องย่อ Underworld: Awakening (2012) สงครามโค่นพันธุ์อสูร 4: กำเนิดใหม่ราชินีแวมไพร์

สิบห้าปีผ่านไปแล้วนับตั้งแต่เซลีนและไมเคิล คนรักสายเลือดไลแคนของเธอ ได้กำจัดมาร์คัส ผู้อาวุโสเผ่าแวมไพร์ไปใน Underworld Evolution ในหลายขวบปีระหว่างนั้น มนุษยชาติได้พบการมีอยู่ของทั้งเผ่าพันธุ์แวมไพร์และ ไลแคน และได้เริ่มต้นสงครามเต็มรูปแบบเพื่อกำจัดเผ่าพันธุ์ ทั้งสอง เซลีน ที่ถูกจับได้ระหว่างการฆ่าล้างเผ่าพันธุ์ตื่นขึ้นมาห ลังจากกว่าทศวรรษ และพบว่าตัวเองถูกขังอยู่ในห้องแล็บปิดผนึกในแอนติเจน บริษัทไบโอเทคทรงอิทธิพล ที่มุ่งมั่นกับการพัฒนาวัคซีนต่อต้านไวรัสที่สร้างเผ่าพันธุ์แวมไพร์และไลแคนให้เกิดขึ้นมาเซลีนหัวใจสลายเพื่อพบว่าไมเคิลได้จากไปแล้ว แต่ไม่ช้า ความเศร้าของเธอก็ถูกครอบงำด้วยความตกตะลึงเมื่อได้พบว่า ระหว่างที่เธออยู่ในสภาพถูกแช่แข็งอยู่นั้น เธอได้ให้กำเนิดลูกสาวของเขา อีฟ (อินเดีย ไอส์ลีย์) ขณะที่เธอค้นหาแหล่งพักพิงให้กับตัวเองและลูก เซลีนก็พบตัวเองอยู่ในโลกที่เผ่าพันธุ์ของเธอที่ครั้ งหนึ่งเคยยืนหยัดได้อย่างภาคภูมิกลับต้องถูกตามล่ล่า จนเกือบจะสูญพันธุ์ ส่วนผู้ที่รอดชีวิตก็หลบซ่อนอยู่ใต้ดิน เมื่อถูกกีดกันจากคนในเผ่าที่เหลืออยู่ เซลีนก็เลยขอความช่วยเหลือจากแวมไพร์เกิดใหม่ เดวิด (ธีโอ เจมส์) ผู้ร่วมมือกับเธอเพื่อแก้แค้นแอนติเจน ที่ซึ่งกองกำลังในเงามืดวางแผนที่จะทำลายทั้งตัวเธอแ ละลูกของเธอ เมื่อ ไลแคน ศัตรูดั้งเดิมของพวกเขาผงาดขึ้นมามีอิทธิพลอีกครั้ง แม้กระทั่งเซลีนเองก็ดูราวกับไร้พลังที่จะเผชิญหน้ากับคู่ปรับที่ร้ายกาจที่สุดในประวัติศาสตร์ของ Underworld นั่นคืออูเบอร์ ไลแคนที่ถูกดัดแปลงด้านพันธุกรรม

Complete name : [MINI-HD]_Underworld.Awakening.2012.720p.AC3.x264.One2loadup.com.mkv
Format : Matroska
Format version : Version 2
File size : 3.12 GiB
Duration : 1 h 28 min
Overall bit rate mode : Variable
Overall bit rate : 5 040 kb/s
Movie name : [MINI-HD]_Underworld.Awakening.2012.720p.AC3.x264.One2loadup.com
Encoded date : UTC 2012-04-28 14:07:08
Writing application : mkvmerge v3.4.0 (‘Rapunzel’) built on May 15 2010 09:38:20
Writing library : libebml v0.8.0 + libmatroska v0.9.0

Video
ID : 1
Format : AVC
Format/Info : Advanced Video Codec
Format profile : [email protected]
Format settings, CABAC : Yes
Format settings, RefFrames : 16 frames
Codec ID : V_MPEG4/ISO/AVC
Duration : 1 h 28 min
Bit rate mode : Variable
Bit rate : 4 266 kb/s
Maximum bit rate : 300 Mb/s
Width : 1 280 pixels
Height : 534 pixels
Display aspect ratio : 2.40:1
Frame rate mode : Constant
Frame rate : 23.976 (24000/1001) FPS
Color space : YUV
Chroma subsampling : 4:2:0
Bit depth : 8 bits
Scan type : Progressive
Bits/(Pixel*Frame) : 0.260
Stream size : 2.58 GiB (83%)
Title : [MINI-HD]_Underworld.Awakening.2012.720p.AC3.x264.One2loadup.com
Writing library : x264 core 120 r2120 0c7dab9
Encoding settings : cabac=1 / ref=16 / deblock=1:0:0 / analyse=0x3:0x133 / me=umh / subme=10 / psy=1 / psy_rd=1.00:0.00 / mixed_ref=1 / me_range=24 / chroma_me=1 / trellis=2 / 8x8dct=1 / cqm=0 / deadzone=21,11 / fast_pskip=1 / chroma_qp_offset=-2 / threads=9 / sliced_threads=0 / nr=0 / decimate=1 / interlaced=0 / bluray_compat=0 / constrained_intra=0 / bframes=8 / b_pyramid=0 / b_adapt=2 / b_bias=0 / direct=3 / weightb=1 / open_gop=0 / weightp=2 / keyint=240 / keyint_min=24 / scenecut=40 / intra_refresh=0 / rc_lookahead=60 / rc=2pass / mbtree=1 / bitrate=4266 / ratetol=1.0 / qcomp=0.60 / qpmin=0 / qpmax=69 / qpstep=4 / cplxblur=20.0 / qblur=0.5 / vbv_maxrate=300000 / vbv_bufsize=300000 / nal_hrd=vbr / ip_ratio=1.40 / aq=1:1.00
Language : English
Default : Yes
Forced : No

Audio #1
ID : 2
Format : AC-3
Format/Info : Audio Coding 3
Format settings, Endianness : Big
Codec ID : A_AC3
Duration : 1 h 28 min
Bit rate mode : Constant
Bit rate : 384 kb/s
Channel(s) : 6 channels
Channel positions : Front: L C R, Side: L R, LFE
Sampling rate : 48.0 kHz
Frame rate : 31.250 FPS (1536 SPF)
Bit depth : 16 bits
Compression mode : Lossy
Delay relative to video : 1 s 0 ms
Stream size : 243 MiB (8%)
Title : Thai DVD Master
Language : Thai
Service kind : Complete Main
Default : Yes
Forced : No

Audio #2
ID : 3
Format : AC-3
Format/Info : Audio Coding 3
Format settings, Endianness : Big
Codec ID : A_AC3
Duration : 1 h 28 min
Bit rate mode : Constant
Bit rate : 384 kb/s
Channel(s) : 6 channels
Channel positions : Front: L C R, Side: L R, LFE
Sampling rate : 48.0 kHz
Frame rate : 31.250 FPS (1536 SPF)
Bit depth : 16 bits
Compression mode : Lossy
Stream size : 243 MiB (8%)
Title : 1080p
Language : English
Service kind : Complete Main
Default : No
Forced : No

Text #1
ID : 4
Format : VobSub
Muxing mode : zlib
Codec ID : S_VOBSUB
Codec ID/Info : Picture based subtitle format used on DVDs
Title : SUB THAI 480P FROM ILLVP
Language : Thai
Default : No
Forced : No

Text #2
ID : 5
Format : VobSub
Muxing mode : zlib
Codec ID : S_VOBSUB
Codec ID/Info : Picture based subtitle format used on DVDs
Title : SUB THAI 480P FROM ILLVP – UNDER
Language : Thai
Default : No
Forced : No

Text #3
ID : 6
Format : UTF-8
Codec ID : S_TEXT/UTF8
Codec ID/Info : UTF-8 Plain Text
Title : ENG SRT
Language : English
Default : No
Forced : No

Text #4
ID : 7
Format : VobSub
Muxing mode : zlib
Codec ID : S_VOBSUB
Codec ID/Info : Picture based subtitle format used on DVDs
Title : SUB THAI 1080P FROM ILLVP
Language : Thai
Default : No
Forced : No

 

DOWNLOAD


PART01 |||| PART02 |||| PART03 |||| PART04

PART01 |||| PART02 |||| PART03 |||| PART04

PART01 |||| PART02 |||| PART03 |||| PART04

PART01 |||| PART02 |||| PART03 |||| PART04

PART01 |||| PART02 |||| PART03 |||| PART04


5 Comments
  1. Boy says

    โหลดเรียบร้อย แต่ไม่ใช่หนัง Underworld: Awakening ครับ

    1. Admin
      Admin says

      แก้ไขเรียบร้อยฮ๊ะ

      1. Boy says

        Thank you so much

  2. อานนท์ says

    โหลดไม่ได้ครับ
    Underworld: Awakening (2012) สงครามโค่นพันธุ์อสูร 4: กำเนิดใหม่ราชินีแวมไพร์
    รบกวนแก้ไขหน่อยครับ
    ขอบคุรครับ

    1. Admin
      Admin says

      แก้ไขเรียบร้อยฮ๊ะ

Leave A Reply

อีเมล์ของคุณจะไม่แสดงให้เห็น Your email address will not be published.

%d bloggers like this: