[MINI-HD] Superman III (1983) ซูเปอร์แมน รีเทิร์น III ภาค 3 [1080p] [พากย์ไทย 2.0 + เสียงอังกฤษ DTS] [บรรยายไทย + อังกฤษ] [เสียงไทย + ซับไทย] [DOSYAUPLOAD]

0

โหลดหนัง Superman III (1983) ซูเปอร์แมน รีเทิร์น III ภาค 3

Superman III (1983) 125min | Action, Adventure, Comedy | 17 June 1983 (USA) Summary: Synthetic kryptonite laced with tar splits Superman in two: good Clark Kent and bad Man of Steel.
Countries: France, UK, USALanguages: English, Italian, Spanish

เรื่องย่อ Superman III (1983) ซูเปอร์แมน รีเทิร์น III ภาค 3

ซุปเปอร์แมน (คริสโตเฟอร์ รีฟ) ต้องต่อสู้กับคอมพิวเตอร์วงจรคลั่งที่สร้างแผนร้ายด้วยตัวเอง จากฝีมือรู้เท่าไม่ถึงการณ์ของ กัส กอร์แมน (ริชาร์ด พริเยอร์) โปรแกรมเมอร์อัจฉริยะ ซึ่งคอมพิวเตอร์นี้ มันต้องการจะครองโลกทั้งใบ และซูเปอร์แมนก็ต้องหยุดมันให้ได้!!

Complete name : [MINI-HD]_Superman.III.1983.1080p.BluRay.DTS.x264.One2loadup.com.mkv
Format : Matroska
Format version : Version 4
File size : 4.15 GiB
Duration : 2 h 4 min
Overall bit rate mode : Variable
Overall bit rate : 4 751 kb/s
Movie name : [MINI-HD]_Superman.III.1983.1080p.BluRay.DTS.x264.One2loadup.com
Encoded date : UTC 2013-08-28 15:40:01
Writing application : mkvmerge v6.3.0 (‘You can’t stop me!’) built on Jun 28 2013 20:09:41
Writing library : libebml v1.3.0 + libmatroska v1.4.0

Video
ID : 1
Format : AVC
Format/Info : Advanced Video Codec
Format profile : [email protected]
Format settings : CABAC / 3 Ref Frames
Format settings, CABAC : Yes
Format settings, Reference : 3 frames
Codec ID : V_MPEG4/ISO/AVC
Duration : 2 h 4 min
Bit rate mode : Variable
Bit rate : 3 000 kb/s
Maximum bit rate : 62.5 Mb/s
Width : 1 920 pixels
Height : 800 pixels
Display aspect ratio : 2.40:1
Frame rate mode : Constant
Frame rate : 23.976 (24000/1001) FPS
Color space : YUV
Chroma subsampling : 4:2:0
Bit depth : 8 bits
Scan type : Progressive
Bits/(Pixel*Frame) : 0.081
Stream size : 2.58 GiB (62%)
Title : [MINI-HD]_Superman.III.1983.1080p.BluRay.DTS.x264.One2loadup.com
Writing library : x264 core 114 r1924 08d04a4
Encoding settings : cabac=1 / ref=3 / deblock=1:0:0 / analyse=0x3:0x133 / me=umh / subme=7 / psy=1 / psy_rd=1.00:0.00 / mixed_ref=1 / me_range=16 / chroma_me=1 / trellis=1 / 8x8dct=1 / cqm=0 / deadzone=21,11 / fast_pskip=1 / chroma_qp_offset=-2 / threads=3 / sliced_threads=0 / nr=0 / decimate=1 / interlaced=0 / constrained_intra=0 / bframes=3 / b_pyramid=0 / b_adapt=1 / b_bias=0 / direct=1 / weightb=1 / open_gop=0 / weightp=2 / keyint=240 / keyint_min=24 / scenecut=40 / intra_refresh=0 / rc_lookahead=40 / rc=2pass / mbtree=1 / bitrate=3000 / ratetol=1.0 / qcomp=0.60 / qpmin=0 / qpmax=69 / qpstep=4 / cplxblur=20.0 / qblur=0.5 / vbv_maxrate=62500 / vbv_bufsize=62500 / nal_hrd=vbr / ip_ratio=1.40 / aq=1:1.00
Language : English
Default : Yes
Forced : No

Audio #1
ID : 2
Format : AC-3
Format/Info : Audio Coding 3
Commercial name : Dolby Digital
Codec ID : A_AC3
Duration : 2 h 4 min
Bit rate mode : Constant
Bit rate : 192 kb/s
Channel(s) : 2 channels
Channel layout : L R
Sampling rate : 48.0 kHz
Frame rate : 31.250 FPS (1536 SPF)
Compression mode : Lossy
Stream size : 172 MiB (4%)
Title : Thai AC-3 2.0 at 192 Kbps BluRay Master
Language : Thai
Service kind : Complete Main
Default : Yes
Forced : No

Audio #2
ID : 3
Format : DTS
Format/Info : Digital Theater Systems
Codec ID : A_DTS
Duration : 2 h 4 min
Bit rate mode : Constant
Bit rate : 1 509 kb/s
Channel(s) : 6 channels
Channel layout : C L R Ls Rs LFE
Sampling rate : 48.0 kHz
Frame rate : 93.750 FPS (512 SPF)
Bit depth : 24 bits
Compression mode : Lossy
Stream size : 1.32 GiB (32%)
Title : English DTS 5.1 at 1 509 Kbps
Language : English
Default : No
Forced : No

Text #1
ID : 4
Format : VobSub
Muxing mode : zlib
Codec ID : S_VOBSUB
Codec ID/Info : Picture based subtitle format used on DVDs
Title : Thai 480p
Language : Thai
Default : No
Forced : No

Text #2
ID : 5
Format : VobSub
Muxing mode : zlib
Codec ID : S_VOBSUB
Codec ID/Info : Picture based subtitle format used on DVDs
Title : Thai 1080p
Language : Thai
Default : Yes
Forced : No

Text #3
ID : 6
Format : PGS
Muxing mode : zlib
Codec ID : S_HDMV/PGS
Codec ID/Info : Picture based subtitle format used on BDs/HD-DVDs
Title : Thai PGS
Language : Thai
Default : No
Forced : No

Text #4
ID : 7
Format : PGS
Muxing mode : zlib
Codec ID : S_HDMV/PGS
Codec ID/Info : Picture based subtitle format used on BDs/HD-DVDs
Title : Thai PGS Under
Language : Thai
Default : No
Forced : No

Text #5
ID : 8
Format : VobSub
Muxing mode : zlib
Codec ID : S_VOBSUB
Codec ID/Info : Picture based subtitle format used on DVDs
Title : English 1080p
Language : English
Default : No
Forced : No

Text #6
ID : 9
Format : PGS
Muxing mode : zlib
Codec ID : S_HDMV/PGS
Codec ID/Info : Picture based subtitle format used on BDs/HD-DVDs
Title : English PGS
Language : English
Default : No
Forced : No

Text #7
ID : 10
Format : UTF-8
Codec ID : S_TEXT/UTF8
Codec ID/Info : UTF-8 Plain Text
Title : English SRT
Language : English
Default : No
Forced : No

Menu
00:00:00.000 : en:00:00:00.000
00:02:34.821 : en:00:02:34.821
00:08:31.010 : en:00:08:31.010
00:12:06.017 : en:00:12:06.017
00:14:31.996 : en:00:14:31.996
00:20:01.158 : en:00:20:01.158
00:21:54.813 : en:00:21:54.813
00:26:31.632 : en:00:26:31.632
00:28:39.801 : en:00:28:39.801
00:30:48.472 : en:00:30:48.472
00:32:48.800 : en:00:32:48.800
00:37:54.105 : en:00:37:54.105
00:39:17.647 : en:00:39:17.647
00:43:59.011 : en:00:43:59.011
00:46:35.501 : en:00:46:35.501
00:51:26.083 : en:00:51:26.083
00:53:45.389 : en:00:53:45.389
00:59:09.588 : en:00:59:09.588
01:02:19.611 : en:01:02:19.611
01:03:19.796 : en:01:03:19.796
01:06:55.386 : en:01:06:55.386
01:09:33.795 : en:01:09:33.795
01:12:47.446 : en:01:12:47.446
01:16:51.357 : en:01:16:51.357
01:23:38.430 : en:01:23:38.430
01:25:56.735 : en:01:25:56.735
01:31:52.966 : en:01:31:52.966
01:34:42.802 : en:01:34:42.802
01:38:28.945 : en:01:38:28.945
01:41:31.877 : en:01:41:31.877
01:43:48.472 : en:01:43:48.472
01:46:28.340 : en:01:46:28.340
01:48:35.676 : en:01:48:35.676
01:50:45.639 : en:01:50:45.639
01:52:58.438 : en:01:52:58.438
01:56:54.549 : en:01:56:54.549
01:58:40.989 : en:01:58:40.989
02:00:04.114 : en:02:00:04.114
02:01:18.271 : en:02:01:18.271

DOWNLOAD


PART01 |||| PART02 |||| PART03 |||| PART04 |||| PART05

PART01 |||| PART02 |||| PART03 |||| PART04 |||| PART05

PART01 |||| PART02 |||| PART03 |||| PART04 |||| PART05

PART01 |||| PART02 |||| PART03 |||| PART04 |||| PART05

PART01 |||| PART02 |||| PART03 |||| PART04 |||| PART05


Leave A Reply

Your email address will not be published.

%d bloggers like this: