[MINI-HD] Superman II: The Richard Donner Cut (2006) ซูเปอร์แมน II ภาค 2 [1080p] [พากย์ไทย 5.1 + เสียงอังกฤษ DTS] [บรรยายไทย + อังกฤษ] [เสียงไทย + ซับไทย] [DOSYAUPLOAD]

3

โหลดหนัง Superman II: The Richard Donner Cut (1980) ซูเปอร์แมน II ภาค 2

Superman II: The Richard Donner Cut (2006) 115min | Action, Adventure, Romance | Video 28 November 2006 Summary: Superman agrees to sacrifice his powers to start a relationship with Lois Lane, unaware that three Kryptonian criminals he inadvertently released are conquering Earth.
Countries: UK, USA, Canada, FranceLanguages: English, Russian

เรื่องย่อ Superman II: The Richard Donner Cut (2006) ปรับใหม่จากฉบับเดิมปี 1980 ซูเปอร์แมน II ภาค 2

Superman II: The Richard Donner Cut เป็นผลงานที่กำกับโดยตัดต่อจากปี 1980 เรื่อง Superman II มันมีจำนวนภาพที่หายไปจากผู้กำกับดั้งเดิม Richard Donner ในปี 1977 ก่อนที่เขาจะถูกนำตัวออกจากโครงการและแทนที่ด้วย Richard Lester ปรับใหม่จากฉบับเดิมปี 1980

ครั้งนี้ซูเปอร์แมน (Christopher Reeve) ต้องรับมือกับ 3 จอมวายร้ายจากดาวคริปตอน (ซึ่งมีพลังเทียบเท่ากับเขา แต่เล่ห์เหลี่ยมมากกว่า)ซึ่งนำทีมโดย นายพลซอด (Terence Stamp) และ เล็กซ์ ลูธอร์ (Gene Hackman) คู่ปรับตัวแสบก็ยังแหกคุกออกมาร่วมขบวนด้วย ในขณะที่คลาร์ค เคนท์ (ซูเปอร์แมนในร่างนักข่าว) ก็กำลังมีความรักอยู่กับลอยส์ เลน (Margot Kidder) แล้วเขาจะเปิดเผยให้เธอทราบหรือไม่ว่าจริงๆ แล้วเขาคือใคร อันนี้ต้องติดตามครับ ถ้าภาคแรกว่าดี ภาค 2 นี่จัดว่าเฉียบคมกว่า เนื้อหาหลากหลายมากขึ้น ปมนี่พันกันนัวเนียเลยครับ ไหนจะเรื่องความรักระหว่างซูเปอร์แมนกับลอยส์ เลน ยังมีเรื่องวายร้ายบุกตามมาอีก เออ หนังก็มันส์แบบเต็มพิกัดกันไปเลย และฉากตีกันช่วงท้ายก็ยอดเยี่ยมเอามากๆด้วย ให้อารมณ์ความมันส์แบบถึงเครื่องจริงๆ เทคนิคพิเศษก็ตระการตาดี

Complete name : [MINI-HD]_Superman.II.The.Richard.Donner.Cut.2006.Edit.1980.1080p.BluRay.DTS.x264.One2loadup.com.mkv
Format : Matroska
Format version : Version 4
File size : 4.20 GiB
Duration : 1 h 55 min
Overall bit rate mode : Variable
Overall bit rate : 5 195 kb/s
Movie name : [MINI-HD]_Superman.II.The.Richard.Donner.Cut.2006.Edit.1980.1080p.BluRay.DTS.x264.One2loadup.com
Encoded date : UTC 2013-08-28 12:26:37
Writing application : mkvmerge v6.3.0 (‘You can’t stop me!’) built on Jun 28 2013 20:09:41
Writing library : libebml v1.3.0 + libmatroska v1.4.0

Video
ID : 1
Format : AVC
Format/Info : Advanced Video Codec
Format profile : [email protected]
Format settings : CABAC / 3 Ref Frames
Format settings, CABAC : Yes
Format settings, Reference : 3 frames
Codec ID : V_MPEG4/ISO/AVC
Duration : 1 h 55 min
Bit rate mode : Variable
Bit rate : 3 000 kb/s
Maximum bit rate : 62.5 Mb/s
Width : 1 920 pixels
Height : 800 pixels
Display aspect ratio : 2.40:1
Frame rate mode : Constant
Frame rate : 23.976 (24000/1001) FPS
Color space : YUV
Chroma subsampling : 4:2:0
Bit depth : 8 bits
Scan type : Progressive
Bits/(Pixel*Frame) : 0.081
Stream size : 2.38 GiB (57%)
Title : [MINI-HD]_Superman.II.The.Richard.Donner.Cut.2006.Edit.1980.1080p.BluRay.DTS.x264.One2loadup.com
Writing library : x264 core 114 r1924 08d04a4
Encoding settings : cabac=1 / ref=3 / deblock=1:0:0 / analyse=0x3:0x133 / me=umh / subme=7 / psy=1 / psy_rd=1.00:0.00 / mixed_ref=1 / me_range=16 / chroma_me=1 / trellis=1 / 8x8dct=1 / cqm=0 / deadzone=21,11 / fast_pskip=1 / chroma_qp_offset=-2 / threads=3 / sliced_threads=0 / nr=0 / decimate=1 / interlaced=0 / constrained_intra=0 / bframes=3 / b_pyramid=0 / b_adapt=1 / b_bias=0 / direct=1 / weightb=1 / open_gop=0 / weightp=2 / keyint=240 / keyint_min=24 / scenecut=40 / intra_refresh=0 / rc_lookahead=40 / rc=2pass / mbtree=1 / bitrate=3000 / ratetol=1.0 / qcomp=0.60 / qpmin=0 / qpmax=69 / qpstep=4 / cplxblur=20.0 / qblur=0.5 / vbv_maxrate=62500 / vbv_bufsize=62500 / nal_hrd=vbr / ip_ratio=1.40 / aq=1:1.00
Language : Thai
Default : Yes
Forced : No

Audio #1
ID : 2
Format : AC-3
Format/Info : Audio Coding 3
Commercial name : Dolby Digital
Codec ID : A_AC3
Duration : 1 h 55 min
Bit rate mode : Constant
Bit rate : 640 kb/s
Channel(s) : 6 channels
Channel layout : L R C LFE Ls Rs
Sampling rate : 48.0 kHz
Frame rate : 31.250 FPS (1536 SPF)
Compression mode : Lossy
Stream size : 530 MiB (12%)
Title : Thai AC-3 5.1 at 640 Kbps BluRay Master
Language : Thai
Service kind : Complete Main
Default : Yes
Forced : No

Audio #2
ID : 3
Format : DTS
Format/Info : Digital Theater Systems
Codec ID : A_DTS
Duration : 1 h 55 min
Bit rate mode : Constant
Bit rate : 1 509 kb/s
Channel(s) : 6 channels
Channel layout : C L R Ls Rs LFE
Sampling rate : 48.0 kHz
Frame rate : 93.750 FPS (512 SPF)
Bit depth : 24 bits
Compression mode : Lossy
Stream size : 1.22 GiB (29%)
Title : English DTS 5.1 at 1 509 Kbps
Language : English
Default : No
Forced : No

Text #1
ID : 4
Format : VobSub
Muxing mode : zlib
Codec ID : S_VOBSUB
Codec ID/Info : Picture based subtitle format used on DVDs
Title : Thai 480p
Language : Thai
Default : No
Forced : No

Text #2
ID : 5
Format : VobSub
Muxing mode : zlib
Codec ID : S_VOBSUB
Codec ID/Info : Picture based subtitle format used on DVDs
Title : Thai 1080p
Language : Thai
Default : Yes
Forced : No

Text #3
ID : 6
Format : VobSub
Muxing mode : zlib
Codec ID : S_VOBSUB
Codec ID/Info : Picture based subtitle format used on DVDs
Title : Thai 1080p Under
Language : Thai
Default : No
Forced : No

Text #4
ID : 7
Format : PGS
Muxing mode : zlib
Codec ID : S_HDMV/PGS
Codec ID/Info : Picture based subtitle format used on BDs/HD-DVDs
Title : Thai PGS
Language : Thai
Default : No
Forced : No

Text #5
ID : 8
Format : PGS
Muxing mode : zlib
Codec ID : S_HDMV/PGS
Codec ID/Info : Picture based subtitle format used on BDs/HD-DVDs
Title : Thai PGS Under
Language : Thai
Default : No
Forced : No

Text #6
ID : 9
Format : VobSub
Muxing mode : zlib
Codec ID : S_VOBSUB
Codec ID/Info : Picture based subtitle format used on DVDs
Title : English 1080p
Language : English
Default : No
Forced : No

Text #7
ID : 10
Format : PGS
Muxing mode : zlib
Codec ID : S_HDMV/PGS
Codec ID/Info : Picture based subtitle format used on BDs/HD-DVDs
Title : English PGS
Language : English
Default : No
Forced : No

Text #8
ID : 11
Format : UTF-8
Codec ID : S_TEXT/UTF8
Codec ID/Info : UTF-8 Plain Text
Title : English SRT
Language : English
Default : No
Forced : No

Menu
00:00:00.000 : en:00:00:00.000
00:05:14.648 : en:00:05:14.648
00:08:27.340 : en:00:08:27.340
00:11:58.551 : en:00:11:58.551
00:14:57.396 : en:00:14:57.396
00:17:17.703 : en:00:17:17.703
00:19:57.696 : en:00:19:57.696
00:25:06.004 : en:00:25:06.004
00:29:49.287 : en:00:29:49.287
00:33:07.319 : en:00:33:07.319
00:37:59.277 : en:00:37:59.277
00:41:06.631 : en:00:41:06.631
00:46:32.957 : en:00:46:32.957
00:48:21.232 : en:00:48:21.232
00:49:54.325 : en:00:49:54.325
00:50:51.882 : en:00:50:51.882
00:53:55.232 : en:00:53:55.232
01:00:19.115 : en:01:00:19.115
01:03:49.826 : en:01:03:49.826
01:07:20.703 : en:01:07:20.703
01:09:04.974 : en:01:09:04.974
01:12:20.169 : en:01:12:20.169
01:15:16.178 : en:01:15:16.178
01:18:15.357 : en:01:18:15.357
01:21:14.369 : en:01:21:14.369
01:28:17.125 : en:01:28:17.125
01:31:56.845 : en:01:31:56.845
01:35:46.240 : en:01:35:46.240
01:40:59.053 : en:01:40:59.053
01:45:02.630 : en:01:45:02.630
01:46:36.557 : en:01:46:36.557
01:49:06.707 : en:01:49:06.707
01:51:13.667 : en:01:51:13.667

DOWNLOAD


PART01 |||| PART02 |||| PART03 |||| PART04 |||| PART05

PART01 |||| PART02 |||| PART03 |||| PART04 |||| PART05

PART01 |||| PART02 |||| PART03 |||| PART04 |||| PART05

PART01 |||| PART02 |||| PART03 |||| PART04 |||| PART05

PART01 |||| PART02 |||| PART03 |||| PART04 |||| PART05


3 Comments
  1. Boydm Lion
    Boydm Lion says

    แอดใส่ปีหนังผิดหรือป่าวครับ

    1. Admin
      Admin says

      ไม่ผิดฮ๊ะ หนังเป็นปี 1980 ถูกตัดต่อใหม่ขึ้นในปี 2006 ซึ่งเป็น version ของ richard donner ฮ๊ะ ซื่อไม่ใช่หนังเวอร์ชั่นปกติของปี 1980 นะฮ๊ะ

  2. Boydm Lion
    Boydm Lion says

    โอเครครับบบ

Leave A Reply

Your email address will not be published.

%d bloggers like this: