[MINI-HD] Nanny McPhee Returns (2010) แนนนี่ แมคฟี่ พี่เลี้ยงมะลึกกึ๊กกึ๋ย 2 [1080p] [พากย์ไทย 5.1 + เสียงอังกฤษ 5.1] [บรรยายไทย + อังกฤษ] [เสียงไทย + ซับไทย] [PANDAFILE]

2

โหลดหนัง Nanny McPhee Returns (2010) แนนนี่ แมคฟี่ พี่เลี้ยงมะลึกกึ๊กกึ๋ย 2

Nanny McPhee Returns | August 20, 2010 (United States) Summary: Nanny McPhee arrives to help a harried young mother who is trying to run the family farm while her husband is away at war, though she uses her magic to teach the woman's children and their t... Read all
Countries: United Kingdom, France, United StatesLanguages: English

เรื่องย่อ Nanny McPhee Returns (2010) แนนนี่ แมคฟี่ พี่เลี้ยงมะลึกกึ๊กกึ๋ย 2

ในตอนล่าสุด พี่เลี้ยงแม็คฟี (เอ็มม่า ธอมสัน) ไปปรากฏตัวที่ประตูบ้านของคุณแม่ยังสาว มิสซิสอิซาเบล กรีน (แม็กกี้ จิลเลนอาล) ผู้พยายามบริหารงานในฟาร์มของครอบครัว ขณะที่สามีของเธอต้องจากบ้านไปรบ แต่เมื่อพี่เลี้ยงแม็คฟีมาถึง เธอพบว่าลูกๆ ของมิสซิสกรีนกำลังทำศึกกับญาติจากเมืองหลวงสองคนที่เอาแต่ใจตัวเอง โดยญาติสองรายนี้เพิ่งจะย้ายเข้ามา แถมยังไม่ยอมไปจากฟาร์มแห่งนี้ด้วย พี่เลี้ยงแม็คฟีที่ใช้ทุกอย่างตั้งแต่มอเตอร์ไซค์บินได้ และรูปปั้นที่ลุกขึ้นมามีชีวิต จนถึงหมูน้อยที่ปีนต้นไม้ได้ และลูกช้างที่โผล่ออกมาในที่ที่แปลกประหลาดที่สุด ต้องใช้เวทมนต์เพื่อสั่งสอนบทเรียนใหม่ๆ ให้กับเด็กซนทั้งห้า

Complete name : [MINI-HD]_Nanny.McPhee.Returns.2010.1080p.x264.One2loadup.com.mkv
Format : Matroska
Format version : Version 4 / Version 2
File size : 2.19 GiB
Duration : 1 h 49 min
Overall bit rate : 2 869 kb/s
Encoded date : UTC 2017-11-18 13:07:09
Writing application : mkvmerge v17.0.0 (‘Be Ur Friend’) 64-bit
Writing library : libebml v1.3.5 + libmatroska v1.4.8

Video
ID : 1
Format : AVC
Format/Info : Advanced Video Codec
Format profile : [email protected]
Format settings, CABAC : Yes
Format settings, RefFrames : 4 frames
Codec ID : V_MPEG4/ISO/AVC
Duration : 1 h 49 min
Bit rate : 2 500 kb/s
Width : 1 920 pixels
Height : 800 pixels
Display aspect ratio : 2.40:1
Frame rate mode : Constant
Frame rate : 23.976 (23976/1000) FPS
Color space : YUV
Chroma subsampling : 4:2:0
Bit depth : 8 bits
Scan type : Progressive
Bits/(Pixel*Frame) : 0.068
Stream size : 1.91 GiB (87%)
Writing library : x264 core 148 r2638M 7599210
Encoding settings : cabac=1 / ref=4 / deblock=1:-1:-1 / analyse=0x3:0x113 / me=umh / subme=9 / psy=1 / psy_rd=1.00:0.15 / mixed_ref=1 / me_range=24 / chroma_me=1 / trellis=2 / 8x8dct=1 / cqm=0 / deadzone=21,11 / fast_pskip=1 / chroma_qp_offset=-3 / threads=32 / lookahead_threads=4 / sliced_threads=0 / nr=0 / decimate=1 / interlaced=0 / bluray_compat=0 / constrained_intra=0 / bframes=3 / b_pyramid=2 / b_adapt=2 / b_bias=0 / direct=3 / weightb=1 / open_gop=0 / weightp=2 / keyint=250 / keyint_min=25 / scenecut=40 / intra_refresh=0 / rc_lookahead=50 / rc=2pass / mbtree=1 / bitrate=2500 / ratetol=1.0 / qcomp=0.60 / qpmin=0 / qpmax=69 / qpstep=4 / cplxblur=20.0 / qblur=0.5 / vbv_maxrate=31250 / vbv_bufsize=31250 / nal_hrd=none / filler=0 / ip_ratio=1.40 / aq=3:1.00
Default : Yes
Forced : No

Audio #1
ID : 2
Format : AAC
Format/Info : Advanced Audio Codec
Format profile : LC
Codec ID : A_AAC
Duration : 1 h 49 min
Bit rate : 224 kb/s
Channel(s) : 6 channels
Channel positions : Front: L C R, Side: L R, LFE
Sampling rate : 48.0 kHz
Frame rate : 46.875 FPS (1024 SPF)
Compression mode : Lossy
Stream size : 175 MiB (8%)
Language : English
Default : Yes
Forced : No

Audio #2
ID : 3
Format : AAC
Format/Info : Advanced Audio Codec
Format profile : LC
Codec ID : A_AAC
Duration : 1 h 49 min
Bit rate : 96.0 kb/s
Channel(s) : 2 channels
Channel positions : Front: L R
Sampling rate : 44.1 kHz
Frame rate : 43.066 FPS (1024 SPF)
Compression mode : Lossy
Delay relative to video : 5 ms
Stream size : 75.0 MiB (3%)
Language : Thai
Default : No
Forced : No

Text #1
ID : 4
Format : UTF-8
Codec ID : S_TEXT/UTF8
Codec ID/Info : UTF-8 Plain Text
Duration : 1 h 41 min
Bit rate : 57 b/s
Count of elements : 1335
Stream size : 42.5 KiB (0%)
Language : English
Default : Yes
Forced : No

Text #2
ID : 5
Format : VobSub
Muxing mode : zlib
Codec ID : S_VOBSUB
Codec ID/Info : Picture based subtitle format used on DVDs
Duration : 1 h 41 min
Bit rate : 8 934 b/s
Count of elements : 1289
Stream size : 6.49 MiB (0%)
Title : 1080p
Language : Thai
Default : No
Forced : No

Text #3
ID : 6
Format : VobSub
Muxing mode : zlib
Codec ID : S_VOBSUB
Codec ID/Info : Picture based subtitle format used on DVDs
Duration : 1 h 41 min
Bit rate : 8 934 b/s
Count of elements : 1289
Stream size : 6.49 MiB (0%)
Title : 1080p Low
Language : Thai
Default : No
Forced : No

Text #4
ID : 7
Format : PGS
Muxing mode : zlib
Codec ID : S_HDMV/PGS
Codec ID/Info : Picture based subtitle format used on BDs/HD-DVDs
Duration : 1 h 41 min
Bit rate : 37.1 kb/s
Count of elements : 2600
Stream size : 27.0 MiB (1%)
Title : PGS 1080p
Language : Thai
Default : No
Forced : No

Text #5
ID : 8
Format : PGS
Muxing mode : zlib
Codec ID : S_HDMV/PGS
Codec ID/Info : Picture based subtitle format used on BDs/HD-DVDs
Duration : 1 h 41 min
Bit rate : 37.1 kb/s
Count of elements : 2600
Stream size : 27.0 MiB (1%)
Title : PGS 1080p Low
Language : Thai
Default : No
Forced : No

Text #6
ID : 9
Format : UTF-8
Codec ID : S_TEXT/UTF8
Codec ID/Info : UTF-8 Plain Text
Duration : 1 h 41 min
Bit rate : 46 b/s
Count of elements : 1300
Stream size : 34.4 KiB (0%)
Language : Thai
Default : No
Forced : No

DOWNLOAD


PART01 |||| PART02 |||| PART03

PART01 |||| PART02 |||| PART03

PART01 |||| PART02 |||| PART03

PART01 |||| PART02 |||| PART03

PART01 |||| PART02 |||| PART03


2 Comments
  1. Mark Huss
    Mark Huss says

    ลิงค์เสียทุกลิงค์โหลดดไมาได้ครับ .. :'(

    1. Admin
      Admin says

      แก้ไขเรียบร้อยฮ๊ะ

Leave A Reply

อีเมล์ของคุณจะไม่แสดงให้เห็น Your email address will not be published.

%d bloggers like this: