[MINI-HD] Nanny McPhee (2005) แนนนี่ แมคฟี่ พี่เลี้ยงมะลึกกึ๊กกึ๋ย [1080p] [พากย์ไทย 5.1 + เสียงอังกฤษ 5.1] [บรรยายไทย + อังกฤษ] [เสียงไทย + ซับไทย] [PANDAFILE]

2

โหลดหนัง Nanny McPhee (2005) แนนนี่ แมคฟี่ พี่เลี้ยงมะลึกกึ๊กกึ๋ย

Nanny McPhee | January 27, 2006 (United States) Summary: A governess uses magic to rein in the behavior of seven ne'er-do-well children in her charge.
Countries: United States, United Kingdom, FranceLanguages: English

เรื่องย่อ Nanny McPhee (2005) แนนนี่ แมคฟี่ พี่เลี้ยงมะลึกกึ๊กกึ๋ย

เป็นเรื่องราวเกี่ยวกับ พ่อกับลูกๆที่แสนซนทั้ง 7 คุณแม่นั้นเสียไปก่อน ลูกๆจึงไม่ได้รับการดูแลมากนักเลยซนระเบิด ส่วนพ่อก็พยายามจะหาพี่เลี้ยงมาคอยดูเด็กๆในระหว่างที่ต้องไปทำงาน แต่มาถึงตอนนี้พี่เลี้ยงคนที่ 17 เพิ่งถูกเด็กแสบทั้ง 7 แกล้งจนทนไม่ไหว ขอลาออก แต่คนที่ 18 นี่ไม่ธรรมดา เพราะเธอคือ Nanny McPhee เธอเป็นแม่มด เธอจะมีไม้เท้า ที่เวลาทุบกับพื้นแล้ว จะมีเวทย์มนตร์เกิดขึ้น หน้าตาของ Nanny McPhee จะไม่สวย แต่ถ้าเธอสอนเด็กๆสำเร็จเป็นเรื่องๆไป หน้าตาเธอจะสวยขึ้น โดยเธอพูดไว้ว่าจะสอนทั้งหมด 5 ข้อ เช่น ต้องตื่นถ้าเรียกให้ตื่น ต้องพูด please และ Thank you ฯลฯ ในช่วงแรกนั้น เด็กๆไม่ยอมรับเธอ แต่สุดท้ายก็พบว่าเธอมีพลังวิเศษทีนี้ เรื่องมีอยู่ว่าพ่อของเด็กนั้น ได้รับการอุปการะเรื่องเงินจากป้ามาตลอด และก็ดันไปสัญญาว่าต้องแต่งงานใหม่ให้ได้ ไม่งั้น ป้าจะไม่ยอมให้เงินอีก นั่นก็เท่ากับว่า เด็กทั้งเจ็ดคนจะถูกแยกไปอยู่ตามสถานเลี้ยงเด็กต่างๆกัน เด็กๆจะทำอย่างไร

Complete name : [MINI-HD]_Nanny.McPhee.2005.1080p.AC3.x265.One2loadup.com.mkv
Format : Matroska
Format version : Version 4 / Version 2
File size : 2.59 GiB
Duration : 1 h 38 min
Overall bit rate : 3 754 kb/s
Encoded date : UTC 2017-11-18 12:52:12 / UTC 2017-03-19T12:32:33Z
Writing application : mkvmerge v17.0.0 (‘Be Ur Friend’) 64-bit
Writing library : libebml v1.3.5 + libmatroska v1.4.8 / Lavf56.1.0

Video
ID : 1
Format : HEVC
Format/Info : High Efficiency Video Coding
Format profile : Main [email protected]@Main
Codec ID : V_MPEGH/ISO/HEVC
Duration : 1 h 38 min
Bit rate : 2 783 kb/s
Width : 1 920 pixels
Height : 816 pixels
Display aspect ratio : 2.35:1
Frame rate mode : Constant
Frame rate : 23.976 (24000/1001) FPS
Color space : YUV
Chroma subsampling : 4:2:0
Bit depth : 10 bits
Bits/(Pixel*Frame) : 0.074
Stream size : 1.92 GiB (74%)
Writing library : x265 1.9:[Mac OS X][clang 7.0.2][64 bit] 10bit
Encoding settings : wpp / ctu=64 / min-cu-size=8 / max-tu-size=32 / tu-intra-depth=1 / tu-inter-depth=1 / me=3 / subme=3 / merange=57 / rect / no-amp / max-merge=3 / temporal-mvp / no-early-skip / rdpenalty=0 / no-tskip / no-tskip-fast / strong-intra-smoothing / no-lossless / no-cu-lossless / no-constrained-intra / no-fast-intra / open-gop / no-temporal-layers / interlace=0 / keyint=240 / min-keyint=24 / scenecut=40 / rc-lookahead=25 / lookahead-slices=4 / bframes=4 / bframe-bias=0 / b-adapt=2 / ref=4 / limit-refs=3 / limit-modes / weightp / no-weightb / aq-mode=1 / qg-size=32 / aq-strength=1.00 / cbqpoffs=0 / crqpoffs=0 / rd=4 / psy-rd=2.00 / rdoq-level=2 / psy-rdoq=1.00 / signhide / deblock / sao / no-sao-non-deblock / b-pyramid / cutree / no-intra-refresh / rc=crf / crf=23.0 / qcomp=0.60 / qpmin=0 / qpmax=51 / qpstep=4 / ipratio=1.40 / pbratio=1.30
Default : Yes
Forced : No
Color range : Limited
Color primaries : BT.709
Transfer characteristics : BT.709
Matrix coefficients : BT.709

Audio #1
ID : 2
Format : AC-3
Format/Info : Audio Coding 3
Format settings, Endianness : Big
Codec ID : A_AC3
Duration : 1 h 38 min
Bit rate mode : Constant
Bit rate : 448 kb/s
Channel(s) : 6 channels
Channel positions : Front: L C R, Side: L R, LFE
Sampling rate : 48.0 kHz
Frame rate : 31.250 FPS (1536 SPF)
Bit depth : 16 bits
Compression mode : Lossy
Delay relative to video : 922 ms
Stream size : 316 MiB (12%)
Title : Surround
Language : English
Service kind : Complete Main
Default : Yes
Forced : No

Audio #2
ID : 3
Format : AC-3
Format/Info : Audio Coding 3
Format settings, Endianness : Big
Codec ID : A_AC3
Duration : 1 h 38 min
Bit rate mode : Constant
Bit rate : 448 kb/s
Channel(s) : 6 channels
Channel positions : Front: L C R, Side: L R, LFE
Sampling rate : 48.0 kHz
Frame rate : 31.250 FPS (1536 SPF)
Bit depth : 16 bits
Compression mode : Lossy
Delay relative to video : 922 ms
Stream size : 316 MiB (12%)
Title : Surround
Language : Thai
Service kind : Complete Main
Default : No
Forced : No

Text #1
ID : 4
Format : VobSub
Muxing mode : zlib
Codec ID : S_VOBSUB
Codec ID/Info : Picture based subtitle format used on DVDs
Language : English
Default : No
Forced : No

Text #2
ID : 5
Format : ASS
Codec ID : S_TEXT/ASS
Codec ID/Info : Advanced Sub Station Alpha
Compression mode : Lossless
Language : English
Default : No
Forced : No

Text #3
ID : 6
Format : VobSub
Muxing mode : zlib
Codec ID : S_VOBSUB
Codec ID/Info : Picture based subtitle format used on DVDs
Title : DVD Master
Language : Thai
Default : No
Forced : No

Text #4
ID : 7
Format : VobSub
Muxing mode : zlib
Codec ID : S_VOBSUB
Codec ID/Info : Picture based subtitle format used on DVDs
Title : 1080p
Language : Thai
Default : No
Forced : No

Text #5
ID : 8
Format : VobSub
Muxing mode : zlib
Codec ID : S_VOBSUB
Codec ID/Info : Picture based subtitle format used on DVDs
Title : 1080p Low
Language : Thai
Default : No
Forced : No

Text #6
ID : 9
Format : PGS
Muxing mode : zlib
Codec ID : S_HDMV/PGS
Codec ID/Info : Picture based subtitle format used on BDs/HD-DVDs
Title : PGS 1080p
Language : Thai
Default : No
Forced : No

Text #7
ID : 10
Format : PGS
Muxing mode : zlib
Codec ID : S_HDMV/PGS
Codec ID/Info : Picture based subtitle format used on BDs/HD-DVDs
Title : PGS 1080p Low
Language : Thai
Default : No
Forced : No

Text #8
ID : 11
Format : UTF-8
Codec ID : S_TEXT/UTF8
Codec ID/Info : UTF-8 Plain Text
Language : Thai
Default : Yes
Forced : No

Menu
00:00:00.000 : :00:00:00.000
00:04:14.128 : :00:04:14.004
00:10:59.659 : :00:10:59.534
00:15:12.786 : :00:15:12.703
00:24:53.408 : :00:24:53.325
00:29:02.824 : :00:29:02.741
00:32:52.887 : :00:32:52.804
00:39:08.387 : :00:39:08.304
00:48:36.246 : :00:48:36.122
00:55:10.891 : :00:55:10.599
01:01:27.141 : :01:01:26.850
01:08:42.868 : :01:08:42.785
01:13:55.055 : :01:13:54.972
01:18:59.234 : :01:18:59.151
01:26:53.249 : :01:26:52.999
01:31:51.130 : :01:31:50.964

DOWNLOAD


PART01 |||| PART02 |||| PART03

PART01 |||| PART02 |||| PART03

PART01 |||| PART02 |||| PART03

PART01 |||| PART02 |||| PART03

PART01 |||| PART02 |||| PART03


2 Comments
  1. narong says

    link เสียครับ

    1. Admin
      Admin says

      แก้ไขเรียบร้อยฮ๊ะ

Leave A Reply

อีเมล์ของคุณจะไม่แสดงให้เห็น Your email address will not be published.

%d bloggers like this: