[MINI-HD] Emergency Declaration (2021) ไฟลต์คลั่ง ฝ่านรกชีวะ [1080p] [พากย์ไทย 2.0 + เสียงเกาหลี 2.0] [บรรยายไทย + อังกฤษ] [เสียงไทยมาสเตอร์ + ซับไทย] [USERLOAD]

0

โหลดหนัง Emergency Declaration (2021) ไฟลต์คลั่ง ฝ่านรกชีวะ

Emergency Declaration | January 22, 2022 (South Korea) Summary: After a terror incident occurs mid-flight, a passenger jet declares an emergency.
Countries: South KoreaLanguages: Korean

เรื่องย่อ Emergency Declaration (2021) ไฟลต์คลั่ง ฝ่านรกชีวะ

คือเรื่องราว ที่ไม่มีใครคาดคิด ในเที่ยวบินนรก จากกรุงโซล สู่เกาะฮาวาย เมื่อหนึ่งในผู้โดยสารเกิดเสียชีวิตอย่างปริศนา และมันได้ สร้างความโกลาหลไปทั้งลำ ผู้โดยสาร 150 ชีวิตเผชิญความสุดขีดคลั่ง กัปตันจึงตัดสินใจประกาศเหตุฉุกเฉินและขอลงจอดทันที แต่หายนะจากบนเครื่องบินใน EMERGENCY DECLARATION สร้างความตื่นตระหนกไปทั้งคาบสมุทรเกาหลี และอาจกลายเป็นวิกฤตล้างโลก จึงมีคาสั่งชี้ตาย และนี่คือต้นเหตุของความลุ้นระทึกในภาพยนตร์เรื่องนี้ พร้อมกับด้วยทุนสร้างมหาศาล

Complete name : [MINI-HD]_Emergency.Declaration.2022.1080p.WEBRip.AAC.x264.THM.One2loadup.com.mkv
Format : Matroska
Format version : Version 4
File size : 4.75 GiB
Duration : 2 h 15 min
Overall bit rate : 5 036 kb/s
Movie name : [MINI-HD]_Emergency.Declaration.2022.1080p.WEBRip.AAC.x264.THM.One2loadup.com
Encoded date : UTC 2022-11-11 09:56:44
Writing application : mkvmerge v67.0.0 (‘Under Stars’) 64-bit
Writing library : libebml v1.4.2 + libmatroska v1.6.4
Cover : Yes
Attachments : cover

Video #1
ID : 1
Format : AVC
Format/Info : Advanced Video Codec
Format profile : [email protected]
Format settings : CABAC / 1 Ref Frames
Format settings, CABAC : Yes
Format settings, Reference : 1 frame
Format settings, GOP : M=1, N=25
Codec ID : V_MPEG4/ISO/AVC
Duration : 2 h 15 min
Bit rate mode : Constant
Bit rate : 2 218 kb/s
Width : 1 920 pixels
Height : 800 pixels
Display aspect ratio : 2.40:1
Frame rate mode : Constant
Frame rate : 25.000 FPS
Color space : YUV
Chroma subsampling : 4:2:0
Bit depth : 8 bits
Scan type : Progressive
Bits/(Pixel*Frame) : 0.058
Stream size : 2.09 GiB (44%)
Title : [MINI-HD]_Emergency.Declaration.2022.1080p.WEBRip.AAC.x264.THM.One2loadup.com
Language : Thai
Default : Yes
Forced : No

Video #2
ID : 2
Format : AVC
Format/Info : Advanced Video Codec
Format profile : [email protected]
Format settings : CABAC / 1 Ref Frames
Format settings, CABAC : Yes
Format settings, Reference : 1 frame
Format settings, GOP : M=1, N=25
Codec ID : V_MPEG4/ISO/AVC
Duration : 2 h 15 min
Bit rate mode : Constant
Bit rate : 2 218 kb/s
Width : 1 920 pixels
Height : 800 pixels
Display aspect ratio : 2.40:1
Frame rate mode : Constant
Frame rate : 25.000 FPS
Color space : YUV
Chroma subsampling : 4:2:0
Bit depth : 8 bits
Scan type : Progressive
Bits/(Pixel*Frame) : 0.058
Stream size : 2.09 GiB (44%)
Title : [MINI-HD]_Emergency.Declaration.2022.1080p.WEBRip.AAC.x264.THM.One2loadup.com
Language : Korean
Default : Yes
Forced : No

Audio #1
ID : 3
Format : AAC LC
Format/Info : Advanced Audio Codec Low Complexity
Codec ID : A_AAC-2
Duration : 2 h 15 min
Bit rate : 192 kb/s
Channel(s) : 2 channels
Channel layout : L R
Sampling rate : 44.1 kHz
Frame rate : 43.066 FPS (1024 SPF)
Compression mode : Lossy
Stream size : 188 MiB (4%)
Title : Th.AAC.2.0_192 kbs
Language : Thai
Default : Yes
Forced : No

Audio #2
ID : 4
Format : AAC LC
Format/Info : Advanced Audio Codec Low Complexity
Codec ID : A_AAC-2
Duration : 2 h 15 min
Bit rate : 384 kb/s
Channel(s) : 6 channels
Channel layout : C L R Ls Rs LFE
Sampling rate : 48.0 kHz
Frame rate : 46.875 FPS (1024 SPF)
Compression mode : Lossy
Stream size : 370 MiB (8%)
Title : Kor.AAC_384 kbs.6 channels
Language : Korean
Default : Yes
Forced : No

Text #1
ID : 5
Format : PGS
Muxing mode : zlib
Codec ID : S_HDMV/PGS
Codec ID/Info : Picture based subtitle format used on BDs/HD-DVDs
Duration : 2 h 13 min
Bit rate : 47.3 kb/s
Count of elements : 3478
Stream size : 45.2 MiB (1%)
Title : [Thai AMZN PGS]
Language : Thai
Default : Yes
Forced : No

Text #2
ID : 6
Format : UTF-8
Codec ID : S_TEXT/UTF8
Codec ID/Info : UTF-8 Plain Text
Duration : 2 h 13 min
Bit rate : 112 b/s
Count of elements : 1739
Stream size : 110 KiB (0%)
Title : Thai
Language : Thai
Default : No
Forced : No

Text #3
ID : 7
Format : UTF-8
Codec ID : S_TEXT/UTF8
Codec ID/Info : UTF-8 Plain Text
Duration : 2 h 13 min
Bit rate : 48 b/s
Count of elements : 1639
Stream size : 47.9 KiB (0%)
Title : English
Language : English
Default : No
Forced : No

DOWNLOAD


PART01 |||| PART02 |||| PART03 |||| PART04 |||| PART05

PART01 |||| PART02 |||| PART03 |||| PART04 |||| PART05

PART01 |||| PART02 |||| PART03 |||| PART04 |||| PART05

PART01 |||| PART02 |||| PART03 |||| PART04 |||| PART05

PART01 |||| PART02 |||| PART03 |||| PART04 |||| PART05


Leave A Reply

อีเมล์ของคุณจะไม่แสดงให้เห็น Your email address will not be published.

%d bloggers like this: