[MINI-HD] A Chinese Ghost Story II (1990) โปเยโปโลเย เย้ยฟ้าแล้วก็ท้า ภาค 2 [1080p] [พากย์ไทย 2.0 + เสียงจีน 5.1] [บรรยายไทย + อังกฤษ] [เสียงไทย + ซับไทย] [USERLOAD]

0

โหลดหนัง A Chinese Ghost Story II (1990) โปเยโปโลเย เย้ยฟ้าแล้วก็ท้า ภาค 2

A Chinese Ghost Story II | July 13, 1990 (Hong Kong) Summary:
Countries: Hong KongLanguages: Cantonese, Mandarin

เรื่องย่อ A Chinese Ghost Story II (1990) โปเยโปโลเย เย้ยฟ้าแล้วก็ท้า ภาค 2

ในตอนนี้ของเทพนิยายมหัศจรรย์ของธรรมชาติที่ยิ่งใหญ่สี่คนหนุ่มสาวถูกจับในสงครามชักเย่อของความชั่วร้ายระหว่างตัวช่วยสร้างอิมพีเรียลและนายพลที่เสียหาย เทคนิคพิเศษที่ยอดเยี่ยมมากมาย!

Complete name : [MINI-HD]_A.Chinese.Ghost.Story.2.1990.1080p.BrRip.AC3.x265.THM.One2loadup.com.mkv
Format : Matroska
Format version : Version 4
File size : 6.20 GiB
Duration : 1 h 42 min
Overall bit rate : 8 624 kb/s
Movie name : [MINI-HD]_A.Chinese.Ghost.Story.2.1990.1080p.BrRip.AC3.x265.THM.One2loadup.com
Encoded date : UTC 2022-05-23 10:52:02
Writing application : mkvmerge v62.0.0 (‘Apollo’) 64-bit
Writing library : libebml v1.4.2 + libmatroska v1.6.4 / Lavf59.6.100

Video
ID : 1
Format : HEVC
Format/Info : High Efficiency Video Coding
Format profile : [email protected]@Main
Codec ID : V_MPEGH/ISO/HEVC
Duration : 1 h 42 min
Bit rate : 8 012 kb/s
Width : 1 920 pixels
Height : 1 038 pixels
Display aspect ratio : 1.85:1
Frame rate mode : Constant
Frame rate : 24.000 FPS
Color space : YUV
Chroma subsampling : 4:2:0 (Type 0)
Bit depth : 8 bits
Bits/(Pixel*Frame) : 0.168
Stream size : 5.76 GiB (93%)
Title : [MINI-HD]_A.Chinese.Ghost.Story.2.1990.1080p.BrRip.AC3.x265.THM.One2loadup.com
Writing library : Lavc59.12.100 libx265
Encoding settings : cabac=1 / ref=4 / deblock=1:-3:-3 / analyse=0x3:0x113 / me=umh / subme=9 / psy_rd=1.2:0.3 / mixed_ref=1 / me_range=26 / chroma_me=1 / trellis=1 / cqm=2 / deadzone=21,11 / chroma_qp_offset=-4 / threads=6 / nr=0 / decimate=1 / mbaff=0 / bframes=3 / b_pyramid=1 / b_adapt=1 / b_bias=0 / direct=3 / wpredb=1 / keyint=250 / keyint_min=25 / scenecut=40 / rc=2pass / bitrate=10970 / ratetol=1.0 / qcomp=0.60 / qpmin=10 / qpmax=51 / qpstep=4 / cplxblur=20.0 / qblur=0.5 / ip_ratio=1.40 / pb_ratio=1.30 / aq=1:1.00
Language : Chinese
Default : Yes
Forced : No
Color range : Limited

Audio #1
ID : 2
Format : AC-3
Format/Info : Audio Coding 3
Commercial name : Dolby Digital
Codec ID : A_AC3
Duration : 1 h 42 min
Bit rate mode : Constant
Bit rate : 384 kb/s
Channel(s) : 6 channels
Channel layout : L R C LFE Ls Rs
Sampling rate : 48.0 kHz
Frame rate : 31.250 FPS (1536 SPF)
Compression mode : Lossy
Stream size : 283 MiB (4%)
Title : Chinese 5.1
Language : Chinese
Service kind : Complete Main
Default : No
Forced : No

Audio #2
ID : 3
Format : AC-3
Format/Info : Audio Coding 3
Commercial name : Dolby Digital
Format settings : Dolby Surround
Codec ID : A_AC3
Duration : 1 h 42 min
Bit rate mode : Constant
Bit rate : 192 kb/s
Channel(s) : 2 channels
Channel layout : L R
Sampling rate : 48.0 kHz
Frame rate : 31.250 FPS (1536 SPF)
Compression mode : Lossy
Stream size : 141 MiB (2%)
Title : Thai 2.0
Language : Thai
Service kind : Complete Main
Default : Yes
Forced : No

Text #1
ID : 4
Format : PGS
Muxing mode : zlib
Codec ID : S_HDMV/PGS
Codec ID/Info : Picture based subtitle format used on BDs/HD-DVDs
Duration : 1 h 40 min
Bit rate : 52.9 kb/s
Count of elements : 2652
Stream size : 37.9 MiB (1%)
Title : Eng PGS
Language : English
Default : Yes
Forced : No

Text #2
ID : 5
Format : PGS
Muxing mode : zlib
Codec ID : S_HDMV/PGS
Codec ID/Info : Picture based subtitle format used on BDs/HD-DVDs
Duration : 1 h 40 min
Bit rate : 32.9 kb/s
Count of elements : 1866
Stream size : 23.6 MiB (0%)
Title : Thai PGS
Language : Thai
Default : Yes
Forced : No

DOWNLOAD


PART01 |||| PART02 |||| PART03 |||| PART04 |||| PART05 |||| PART06 |||| PART07

PART01 |||| PART02 |||| PART03 |||| PART04 |||| PART05 |||| PART06 |||| PART07

PART01 |||| PART02 |||| PART03 |||| PART04 |||| PART05 |||| PART06 |||| PART07

PART01 |||| PART02 |||| PART03 |||| PART04 |||| PART05 |||| PART06 |||| PART07

PART01 |||| PART02 |||| PART03 |||| PART04 |||| PART05 |||| PART06 |||| PART07


Leave A Reply

อีเมล์ของคุณจะไม่แสดงให้เห็น Your email address will not be published.

%d bloggers like this: