เว็บโหลดหนัง HD MINI-HD SUPER-HQ Full-HD 1080p One2up VIP Master Zoom ซูม หนังใหม่ ออนไลน์ มาสเตอร์ ไทย จีน ฝรั่ง การ์ตูน

[MINI-HD] Thailand Only (2017) ไทยแลนด์ โอนลี่ เมืองไทยอะไรก็ได้ [720p] [DVDRip] [เสียงไทย 5.1] [เสียงไทย Master] [ONE2UP]

0

โหลดหนัง  Thailand Only (2017) ไทยแลนด์ โอนลี่ เมืองไทยอะไรก็ได้

เรื่องย่อ Thailand Only (2017) ไทยแลนด์ โอนลี่ เมืองไทยอะไรก็ได้

Thailand Only: เรื่องราวสุดป่วงของแก๊งไกด์ที่นำทีมโดย แจ๊ส ชวนชื่น, แน็ก ชาลี และ ค่อม ชวนชื่น ที่หมายมั่นปั้นมือว่าจะต้องเริ่มต้นชีวิตใหม่อย่างเท่สุดๆ ในฐานะประชาชนผู้ประกอบอาชีพสุจริต แต่ดันต้องจับพลัดจับผลูมารับงานไกด์ผจญกับก๊วนลูกทัวร์จีนสุดป่วน พร้อมตัวช่วยที่ไม่รู้จะช่วยได้แค่ไหนอย่าง โหน่ง ชะชะช่า และรัศมีแข ฟ้าเกื้อล้น ทำให้เกิดประสบการณ์ท่องเที่ยวพาทัวร์แบบที่สุด จนต้องบอกว่านี่แหละ Thailand Only – เมืองไทยอะไรก็ได้ เตรียมพบกับความป่วนของ กรุ๊ปทัวร์สุดหรรษา กลุ่มนี้กันแล้วละว่า…พวกเขาจะต้องไปพบเจอกับอะไรบ้างและระหว่าง ไกด์กะล่อนขั้นเทพ กับลูกทัวร์สุดแสบใครจะแซ่บกว่ากัน ผลงานการกำกับของ ทอม อิศรา นาดี!!!

Complete name : [MINI-HD]_ThaiLand.Only.2017.DVDRip.720p.AC3.x264.One2loadup.com.mkv
Format : Matroska
Format version : Version 4 / Version 2
File size : 3.42 GiB
Duration : 1 h 49 min
Overall bit rate : 4 483 kb/s
Encoded date : UTC 2017-08-31 01:51:50
Writing application : mkvmerge v7.7.0 (‘Six Voices’) 32bit built on Feb 28 2015 23:23:00
Writing library : libebml v1.3.1 + libmatroska v1.4.2

Video
ID : 1
Format : AVC
Format/Info : Advanced Video Codec
Format profile : [email protected]
Format settings : CABAC / 4 Ref Frames
Format settings, CABAC : Yes
Format settings, ReFrames : 4 frames
Codec ID : V_MPEG4/ISO/AVC
Duration : 1 h 49 min
Bit rate : 4 072 kb/s
Width : 1 280 pixels
Height : 528 pixels
Display aspect ratio : 2.35:1
Original display aspect rat : 2.35:1
Frame rate mode : Constant
Frame rate : 25.000 FPS
Color space : YUV
Chroma subsampling : 4:2:0
Bit depth : 8 bits
Scan type : Progressive
Bits/(Pixel*Frame) : 0.241
Stream size : 3.08 GiB (90%)
Writing library : x264 core 146 r2538 121396c
Encoding settings : cabac=1 / ref=3 / deblock=1:0:0 / analyse=0x3:0x113 / me=umh / subme=10 / psy=1 / psy_rd=1.00:0.00 / mixed_ref=1 / me_range=16 / chroma_me=1 / trellis=2 / 8x8dct=1 / cqm=0 / deadzone=21,11 / fast_pskip=1 / chroma_qp_offset=-2 / threads=12 / lookahead_threads=1 / sliced_threads=0 / nr=0 / decimate=1 / interlaced=0 / bluray_compat=0 / constrained_intra=0 / bframes=3 / b_pyramid=2 / b_adapt=1 / b_bias=0 / direct=1 / weightb=1 / open_gop=0 / weightp=2 / keyint=250 / keyint_min=25 / scenecut=40 / intra_refresh=0 / rc_lookahead=40 / rc=abr / mbtree=1 / bitrate=4072 / ratetol=1.0 / qcomp=0.60 / qpmin=0 / qpmax=69 / qpstep=4 / ip_ratio=1.40 / aq=1:1.00
Default : Yes
Forced : No

Audio
ID : 2
Format : AC-3
Format/Info : Audio Coding 3
Codec ID : A_AC3
Duration : 1 h 49 min
Bit rate mode : Constant
Bit rate : 448 kb/s
Channel(s) : 6 channels
Channel positions : Front: L C R, Side: L R, LFE
Sampling rate : 48.0 kHz
Frame rate : 31.250 FPS (1536 SPF)
Bit depth : 16 bits
Compression mode : Lossy
Stream size : 350 MiB (10%)
Language : Thai
Service kind : Complete Main
Default : Yes
Forced : No

Menu
00:00:00.000 : en:Chapter 1
00:14:08.240 : en:Chapter 2
00:27:44.240 : en:Chapter 3
00:45:23.120 : en:Chapter 4
00:56:24.080 : en:Chapter 5
01:12:32.240 : en:Chapter 6
01:26:00.080 : en:Chapter 7
01:40:00.080 : en:Chapter 8

DOWNLOAD


PART01 |||| PART02 |||| PART03 |||| PART04

PART01 |||| PART02 |||| PART03 |||| PART04

PART01 |||| PART02 |||| PART03 |||| PART04

PART01 |||| PART02 |||| PART03 |||| PART04


Leave A Reply

Your email address will not be published.

%d bloggers like this: