[MINI Super-HQ] The Legend of Zorro (2005) ศึกตำนานหน้ากากโซโร [1080p] [พากย์ไทย 5.1 + เสียงอังกฤษ DTS] [บรรยายไทย] [เสียงไทย + ซับไทย] [PANDAFILE]

4

The Legend of Zorro (2005)

โหลดหนัง The Legend of Zorro (2005) ศึกตำนานหน้ากากโซโร

The Legend of Zorro | October 28, 2005 (United States) Summary: Despite trying to keep his swashbuckling to a minimum, a threat to California's pending statehood causes the adventure-loving Don Alejandro de la Vega and his wife, Elena, to take action.
Countries: United StatesLanguages: English, Spanish

เรื่องย่อ The Legend of Zorro (2005) ศึกตำนานหน้ากากโซโร

ดอน อเลฮานโดร เดอ ลา เวก้า (แอนโตนิโอ แบนเดอราส) และ เอเลน่า (แคทเธอรีน ซีต้า-โจนส์) ได้แต่งงานกันและมีลูกชายอายุ 10 ขวบ ชื่อ วาคิน (เอเดรียน อลองโซ) ซึ่งถึงแม้อะเลฮานโดรจะยังคงสวมหน้ากากโซโรออกปกป้อง ผู้ยากไร้ และพิทักษ์ชาวเมืองแคลิฟอร์เนียจากพวกเจ้าขุนมูลนายห น้าเลือด แต่มาบัดนี้ ความรู้สึกของเขากลับถูกแบ่งออกเป็นสอง ระหว่างสำนึกในหน้าที่และความปรารถนาที่อยากจะมีชีวิตแบบคนธรรมดาทั่วไป.. ขณะที่ในใจยังรุ่มร้อนไปด้วยความขัดแย้ง แผนการแต่งตั้งแคลิฟอร์เนียขึ้นเป็นรัฐที่ 31 ของอเมริกาก็กำลังถูกขัดขวางด้วยอำนาจมืด จึงถึงคราวที่โซโรต้องรีบรุดเข้าไปขัดขวางแผนการชั่ว ร้ายเพื่อแก้วิกฤตการณ์อย่างอาจหาญอีกครั้ง แม้มันจะหมายถึงการเสี่ยงทั้งชีวิตและความปลอดภัยของ ครอบครัวก็ตาม

Complete name : [MINI Super-HQ]_The.Legend.Of.Zorro.2005.1080p.BluRay.DTS.x264.One2loadup.com.mkv
Format : Matroska
Format version : Version 2
File size : 5.13 GiB
Duration : 2 h 10 min
Overall bit rate : 5 625 kb/s
Movie name : [MINI Super-HQ]_The.Legend.Of.Zorro.2005.1080p.BluRay.DTS.x264.One2loadup.com
Encoded date : UTC 2016-01-07 12:54:06
Writing application : mkvmerge v5.5.0 (‘Healer’) built on Apr 6 2012 21:43:24
Writing library : libebml v1.2.3 + libmatroska v1.3.0

Video
ID : 1
Format : AVC
Format/Info : Advanced Video Codec
Format profile : [email protected]
Format settings : CABAC / 5 Ref Frames
Format settings, CABAC : Yes
Format settings, ReFrames : 5 frames
Muxing mode : Header stripping
Codec ID : V_MPEG4/ISO/AVC
Duration : 2 h 10 min
Bit rate : 4 412 kb/s
Width : 1 920 pixels
Height : 816 pixels
Display aspect ratio : 2.35:1
Frame rate mode : Constant
Frame rate : 23.976 (24000/1001) FPS
Color space : YUV
Chroma subsampling : 4:2:0
Bit depth : 8 bits
Scan type : Progressive
Bits/(Pixel*Frame) : 0.117
Stream size : 3.93 GiB (77%)
Title : [MINI Super-HQ]_The.Legend.Of.Zorro.2005.1080p.BluRay.DTS.x264.One2loadup.com
Writing library : x264 core 120 r2164 da19765
Encoding settings : cabac=1 / ref=5 / deblock=1:-2:-2 / analyse=0x3:0x133 / me=umh / subme=9 / psy=1 / psy_rd=1.00:0.00 / mixed_ref=1 / me_range=32 / chroma_me=1 / trellis=1 / 8x8dct=1 / cqm=0 / deadzone=21,11 / fast_pskip=0 / chroma_qp_offset=-2 / threads=6 / sliced_threads=0 / nr=0 / decimate=1 / interlaced=0 / bluray_compat=0 / constrained_intra=0 / bframes=8 / b_pyramid=2 / b_adapt=1 / b_bias=0 / direct=3 / weightb=1 / open_gop=1 / weightp=2 / keyint=240 / keyint_min=23 / scenecut=40 / intra_refresh=0 / rc=2pass / mbtree=0 / bitrate=4412 / ratetol=1.0 / qcomp=1.00 / qpmin=0 / qpmax=69 / qpstep=4 / cplxblur=20.0 / qblur=0.5 / ip_ratio=1.40 / pb_ratio=1.30 / aq=1:1.00
Language : English
Default : Yes
Forced : No
Color range : Limited
Color primaries : BT.709
Transfer characteristics : BT.709
Matrix coefficients : BT.709

Audio #1
ID : 2
Format : AC-3
Format/Info : Audio Coding 3
Muxing mode : Header stripping
Codec ID : A_AC3
Duration : 2 h 10 min
Bit rate mode : Constant
Bit rate : 448 kb/s
Channel(s) : 6 channels
Channel positions : Front: L C R, Side: L R, LFE
Sampling rate : 48.0 kHz
Frame rate : 31.250 FPS (1536 SPF)
Bit depth : 16 bits
Compression mode : Lossy
Stream size : 418 MiB (8%)
Title : AC3 5.1
Language : Thai
Service kind : Complete Main
Default : Yes
Forced : No

Audio #2
ID : 3
Format : DTS
Format/Info : Digital Theater Systems
Muxing mode : Header stripping
Codec ID : A_DTS
Duration : 2 h 10 min
Bit rate mode : Constant
Bit rate : 756 kb/s
Channel(s) : 6 channels
Channel positions : Front: L C R, Side: L R, LFE
Sampling rate : 48.0 kHz
Frame rate : 93.750 FPS (512 SPF)
Bit depth : 24 bits
Compression mode : Lossy
Stream size : 705 MiB (13%)
Title : DTS 5.1
Language : English
Default : No
Forced : No

Text #1
ID : 4
Format : VobSub
Muxing mode : zlib
Codec ID : S_VOBSUB
Codec ID/Info : Picture based subtitle format used on DVDs
Title : Thai 480p
Language : Thai
Default : Yes
Forced : No

Text #2
ID : 5
Format : VobSub
Muxing mode : zlib
Codec ID : S_VOBSUB
Codec ID/Info : Picture based subtitle format used on DVDs
Title : Thai 1080p
Language : Thai
Default : No
Forced : Yes

Text #3
ID : 6
Format : PGS
Muxing mode : zlib
Codec ID : S_HDMV/PGS
Codec ID/Info : Picture based subtitle format used on BDs/HD-DVDs
Title : Thai PGS
Language : Thai
Default : No
Forced : Yes

DOWNLOAD


PART01 |||| PART02 |||| PART03 |||| PART04 |||| PART05

PART01 |||| PART02 |||| PART03 |||| PART04 |||| PART05

PART01 |||| PART02 |||| PART03 |||| PART04 |||| PART05

PART01 |||| PART02 |||| PART03 |||| PART04 |||| PART05

PART01 |||| PART02 |||| PART03 |||| PART04 |||| PART05


4 Comments
  1. IIou Kanyarat
    IIou Kanyarat says

    ขอบคุณค่ะ เห็นบอกว่ามีพากย์ไทย แต่พอโหลดเสร็จ มันเป็นเสียงภาษาอังกฤษทั้งสองอันเลยค่ะ หนูเปิดกับโปรแกรม PortPlayer กับ โปรแกรม Cyberlink Power DVD

    1. Admin
      Admin says

      ขออภัย มันเป็นภาษาอังกฤษ จริงๆ ด้วยนะ เนี่ย ลืมดู อะ โทษที ^^

  2. Vong Speed
    Vong Speed says

    ขอบคุณมากครับ แต่มันโหลด ไม่ได้ครับ ขอเสียงไทยด้วยนะครับ

    1. Admin
      Admin says

      แก้ไขเรียบร้อยฮ๊ะ มันเป็นเสียงไทยอยู่แล้วนะฮ๊ะ

Leave A Reply

อีเมล์ของคุณจะไม่แสดงให้เห็น Your email address will not be published.

%d bloggers like this: