[MINI-HD] Crows Zero (2007) เรียกเขาว่าอีกา ภาค 1 [720p] [พากย์ไทย 5.1 + ญี่ปุ่น 5.1] [บรรยายไทย] [เสียงไทย + ซับไทย] [OPENLOAD]

8

โหลดหนัง Crows Zero (2007) เรียกเขาว่าอีกา ภาค 1

Kurôzu zero (2007) 2h 10min | Action, Thriller | 27 October 2007 (Japan) Summary: A transfer student attempts to take over the most violent high school in the country, whose students form factions and battle each other for power.
Countries: JapanLanguages: Japanese

เรื่องย่อ Crows Zero (2007) เรียกเขาว่าอีกา ภาค 1

โรงเรียน มัธยมปลายชาย สุซุรัน หรือมีชื่อเรียกเล่นๆ ว่า “โรงเรียนของบรรดาอีกา” (The School of Crows) สุซุรัน คือโรงเรียนไม่ประสบความสำเร็จที่สุด เป็นโรงเรียนที่ชอบใช้ความรุนแรงกันที่สุดในประเทศ บรรดานักเรียนจะถูกเรียกว่า “อีกา” พวกเขาจะรวมตัวกันเป็นกลุ่มย่อยๆ และต่อสู้กันเพื่อความมีอิทธิพลและการมีอำนาจในโรงเร ียน แต่พวกเค้าต่างก็มีเป้าหมายเดียวกัน เป็นเป้าหมายหนึ่งเดียว ซึ่งไม่เคยมีใครทำได้มาก่อนในประวัติศาสตร์ของโรงเรียน เป้าหมายนั้นก็คือการรวมเป็นหนึ่งเดียวของบรรดานักเรียน ไม่เคยมีกลุ่มใดได้ครอบครองความยิ่งใหญ่อันสูงสุดนี้

แต่นั่นไม่ใช่ เรื่องที่จะไม่มีวันเปลี่ยนแปลงมีกลุ่มทรงอำนาจ กลุ่มหนึ่งในชื่อ “กองกำลังเซริซาว่า” เป็นกลุ่มที่เข้าใกล้เป้าหมายสูงสุดได้มากที่สุดกองกำลังเซริซาว่านำทัพโดย นักเรียนปีสาม ทามาโอะ เซริซาว่า (รับบทโดย ทาคายูคิ ยามาดะ) นักสู้กระหายเลือดผู้ซึ่งได้รับความไว้เนื้อเชื่อใจจ ากลูกทีมของเขาเป็น อย่างยิ่งจากนั้นวันหนึ่ง ก็มีนักเรียนปริศนาย้ายเข้าใหม่คนหนึ่ง เขาเป็นนักเรียนปีสามมีชื่อว่าเก็นจิ ทาคิยะ (รับบทโดย ชุน โอกุริ) พ่อของเขาเป็นหัวหน้าขององค์กรอาชญากรรมที่ทรงอิทธิพล เก็นจิ ต้องการรับช่วงต่อจากพ่อในสักวันหนึ่งแต่ด้วยเงื่อนไขที่ท้าทายเป็นอย่างยิ่ง นั่นก็คือต้องยึดครองสุซุรัน

Complete name : [MINI-HD]_Crows.Zero.2007.720p.BluRay.AC3.x264.One2loadup.com.mkv
Format : Matroska
Format version : Version 4 / Version 2
File size : 3.63 GiB
Duration : 2 h 10 min
Overall bit rate : 3 992 kb/s
Movie name : [MINI-HD]_Crows.Zero.2007.720p.BluRay.AC3.x264.One2loadup.com
Encoded date : UTC 2014-11-01 05:01:33
Writing application : mkvmerge v7.2.0 (‘On Every Street’) 64bit built on Sep 13 2014 15:52:10
Writing library : libebml v1.3.0 + libmatroska v1.4.1

Video
ID : 1
Format : MPEG-4 Visual
Format profile : Advanced [email protected]
Format settings : BVOP1
Format settings, BVOP : 1
Format settings, QPel : No
Format settings, GMC : No warppoints
Format settings, Matrix : Default (H.263)
Muxing mode : Packed bitstream
Codec ID : V_MS/VFW/FOURCC / XVID
Codec ID/Hint : XviD
Duration : 2 h 10 min
Bit rate : 3 093 kb/s
Width : 1 280 pixels
Height : 688 pixels
Display aspect ratio : 1.85:1
Frame rate mode : Constant
Frame rate : 23.976 (23976/1000) FPS
Color space : YUV
Chroma subsampling : 4:2:0
Bit depth : 8 bits
Scan type : Progressive
Compression mode : Lossy
Bits/(Pixel*Frame) : 0.147
Stream size : 2.81 GiB (77%)
Title : [MINI-HD]_Crows.Zero.2007.720p.BluRay.AC3.x264.One2loadup.com
Writing library : XviD 1.2.1 (UTC 2008-12-04)
Language : Japanese
Default : Yes
Forced : No

Audio #1
ID : 2
Format : AC-3
Format/Info : Audio Coding 3
Codec ID : A_AC3
Duration : 2 h 10 min
Bit rate mode : Constant
Bit rate : 448 kb/s
Channel(s) : 6 channels
Channel positions : Front: L C R, Side: L R, LFE
Sampling rate : 48.0 kHz
Frame rate : 31.250 FPS (1536 SPF)
Bit depth : 16 bits
Compression mode : Lossy
Delay relative to video : 64 ms
Stream size : 417 MiB (11%)
Title : 5.1
Language : Thai
Service kind : Complete Main
Default : Yes
Forced : No

Audio #2
ID : 3
Format : AC-3
Format/Info : Audio Coding 3
Codec ID : A_AC3
Duration : 2 h 10 min
Bit rate mode : Constant
Bit rate : 448 kb/s
Channel(s) : 6 channels
Channel positions : Front: L C R, Side: L R, LFE
Sampling rate : 48.0 kHz
Frame rate : 31.250 FPS (1536 SPF)
Bit depth : 16 bits
Compression mode : Lossy
Stream size : 417 MiB (11%)
Title : 5.1
Language : Japanese
Service kind : Complete Main
Default : No
Forced : No

Text
ID : 4
Format : VobSub
Codec ID : S_VOBSUB
Codec ID/Info : Picture based subtitle format used on DVDs
Duration : 2 h 7 min
Bit rate : 1 635 b/s
Count of elements : 1120
Stream size : 1.49 MiB (0%)
Title : DVDMASTER
Language : Thai
Default : Yes
Forced : No

DOWNLOAD


PART01 |||| PART02 |||| PART03 |||| PART04

PART01 |||| PART02 |||| PART03 |||| PART04

PART01 |||| PART02 |||| PART03 |||| PART0

PART01 |||| PART02 |||| PART03 |||| PART04


8 Comments
  1. ສອງ ນະຄອນຫຼວງ

    ในที่สุดก็มาแล้วววว ? ??
    – Crows Zero
    – Crows Zero II.

    1. Admin
      Admin says

      แม่นแล้ว 555

      1. ສອງ ນະຄອນຫຼວງ

        เว้าลาวกะได้อีกเนาะ แอดมิินนิ. 55555+ ?

        1. Admin
          Admin says

          คักๆ หลายเด้อ 555 มั่วเอา เทพปะล่า

  2. Jame says

    ลิงค์ไฟล์ที่4เสียอ่ะคับ

    1. Admin
      Admin says

      แก้ไขเรียบร้อยฮ๊ะ

  3. Tmj Sunakene
    Tmj Sunakene says

    ลิงค์ไฟล์เสียคับ

    1. Admin
      Admin says

      แก้ไขเรียบร้อยฮ๊ะ


แจ้งหนังเสีย หรือโหลดไม่ได้ ทั้งลิ้งฟรีและ vip สามารถกดที่รูปด้านบนนี้ได้เลย

: Disable Comments
%d bloggers like this: