[MINI-HD] Crows Zero 2 (2009) เรียกเขาว่าอีกา ภาค 2 [720p] [พากย์ไทย 5.1 + เสียงญี่ปุ่น 5.1] [บรรยายไทย] [เสียงไทย + ซับไทย] [PANDAFILE]

8

Crows Zero 2 (2009) เรียกเขาว่าอีกา ภาค 2

โหลดหนัง Crows Zero 2 (2009) เรียกเขาว่าอีกา ภาค 2 

Kurôzu zero II | April 11, 2009 (Japan) Summary:
Countries: JapanLanguages: Japanese

เรื่องย่อ Crows Zero 2 (2009) เรียกเขาว่าอีกา ภาค 2

ภาคแรกได้จบสิ้นไปนานหลายเดือนแล้ว เก็นจิ (ชุน โอกุริ) และกลุ่มจีพีเอสที่เป็นฝ่ายมีชัยกลับต้องเผชิญกับความท้าทายอีกครั้งจากนักเรียนของสถ าบันโฮเซ็นอคาเดมีที่ได้สมญานามจากทุกคนว่า กองทัพนักฆ่า อันที่จริงแล้ว โรงเรียนทั้งสองแห่งมีประวัติการขัดแย้งและต่อสู้กันมาก่อน และความเกลียดชังก็เริ่มปะทุขึ้นอีกครั้งทำลายความสงบที่ทั้งสองฝ่ายเคยมีมาจนถึงปัจจุบัน ภายใต้การนำของนารูมิ ทาอิกะ (โนบูอากิ คาเนโกะ) ผู้นำคนใหม่ของโฮเซ็นอคาเดมีเขาเตรียมพร้อมที่จะเปิดแผลเก่าด้วยการเข้าโจมตีโรงเ รียนซูซึรันไฮสกูลทุก รูปแบบเมื่อความขัดแย้งเริ่มเข้าครอบงำกลุ่มซูซึรัน โครวส์ เก็นจินักสู้แถวหน้าของกลุ่มจีพีเอสก็ดูเหมือนว่าจะได้รับความทะเยอทะยานในการเอาชนะรินดา-แมนที่ยังไม่เคยมีใครล้มได้ แต่การต่อสู้ครั้งนี้มีความเป็นเอกภาพของกลุ่มเป็นเด ิมพันขณะที่ซูซึรันกำลังถอยร่นและแตกสามัคคี ซูเปอร์ร็อคกี้ นักเรียนใหม่ของโฮเซ็นอคาเดมี ที่มีนามว่าทัตสึยะ บิโตะ (ฮารูม่า มิอูระ)ก็ปรากฎตัวต่อหน้าโครวส์ เพื่อนำเสนอความท้าทายแปลกใหม่อย่างไม่เคยมีมาก่อนมันไม่จบจนกว่าจะถึงกาลอวสาน!!!

Complete name : [MINI-HD]_Crows.Zero.2.2009.720p.BluRay.AC3.x264.One2loadup.com.mkv
Format : Matroska
Format version : Version 4 / Version 2
File size : 3.63 GiB
Duration : 2 h 13 min
Overall bit rate : 3 905 kb/s
Movie name : [MINI-HD]_Crows.Zero.2.2009.720p.BluRay.AC3.x264.One2loadup.com
Encoded date : UTC 2014-11-01 05:06:04
Writing application : mkvmerge v7.2.0 (‘On Every Street’) 64bit built on Sep 13 2014 15:52:10
Writing library : libebml v1.3.0 + libmatroska v1.4.1

Video
ID : 1
Format : MPEG-4 Visual
Format profile : Advanced [email protected]
Format settings : BVOP1
Format settings, BVOP : 1
Format settings, QPel : No
Format settings, GMC : No warppoints
Format settings, Matrix : Default (H.263)
Muxing mode : Packed bitstream
Codec ID : V_MS/VFW/FOURCC / XVID
Codec ID/Hint : XviD
Duration : 2 h 13 min
Bit rate : 3 006 kb/s
Width : 1 280 pixels
Height : 544 pixels
Display aspect ratio : 2.35:1
Frame rate mode : Constant
Frame rate : 23.976 (23976/1000) FPS
Color space : YUV
Chroma subsampling : 4:2:0
Bit depth : 8 bits
Scan type : Progressive
Compression mode : Lossy
Bits/(Pixel*Frame) : 0.180
Stream size : 2.80 GiB (77%)
Title : [MINI-HD]_Crows.Zero.2.2009.720p.BluRay.AC3.x264.One2loadup.com
Writing library : XviD 1.2.1 (UTC 2008-12-04)
Language : Japanese
Default : Yes
Forced : No

Audio #1
ID : 2
Format : AC-3
Format/Info : Audio Coding 3
Codec ID : A_AC3
Duration : 2 h 13 min
Bit rate mode : Constant
Bit rate : 448 kb/s
Channel(s) : 6 channels
Channel positions : Front: L C R, Side: L R, LFE
Sampling rate : 48.0 kHz
Frame rate : 31.250 FPS (1536 SPF)
Bit depth : 16 bits
Compression mode : Lossy
Delay relative to video : 32 ms
Stream size : 427 MiB (11%)
Title : 5.1
Language : Thai
Service kind : Complete Main
Default : Yes
Forced : No

Audio #2
ID : 3
Format : AC-3
Format/Info : Audio Coding 3
Codec ID : A_AC3
Duration : 2 h 13 min
Bit rate mode : Constant
Bit rate : 448 kb/s
Channel(s) : 6 channels
Channel positions : Front: L C R, Side: L R, LFE
Sampling rate : 48.0 kHz
Frame rate : 31.250 FPS (1536 SPF)
Bit depth : 16 bits
Compression mode : Lossy
Stream size : 427 MiB (11%)
Title : 5.1
Language : Japanese
Service kind : Complete Main
Default : No
Forced : No

Text
ID : 4
Format : VobSub
Codec ID : S_VOBSUB
Codec ID/Info : Picture based subtitle format used on DVDs
Duration : 2 h 9 min
Bit rate : 1 357 b/s
Count of elements : 996
Stream size : 1.26 MiB (0%)
Title : DVDMASTER
Language : Thai
Default : Yes
Forced : No

DOWNLOAD


PART01 |||| PART02 |||| PART03 |||| PART04

PART01 |||| PART02 |||| PART03 |||| PART04

PART01 |||| PART02 |||| PART03 |||| PART04

PART01 |||| PART02 |||| PART03 |||| PART04

PART01 |||| PART02 |||| PART03 |||| PART04


8 Comments
  1. ສອງ ນະຄອນຫຼວງ

    ในที่สุดก็มาแล้วววว ? ??
    – Crows Zero
    – Crows Zero II.

  2. Orca
    Orca says

    Part 4 เสียแล้วครับ แก้ให้หน่อยครับ

    1. Admin
      Admin says

      แก้ไขเรียบร้อยฮ๊ะ

  3. kongrastafah says

    ไฟล์เสียครับพี่โหลดพาท 1-2 ไม่ได้

    1. Admin
      Admin says

      แก้ไขเรียบร้อยฮ๊ะ

  4. kongrastafah says

    ขอบคุณมากๆครับ

  5. Dew Poon
    Dew Poon says

    ไฟล์เสียครับพาท 2-3-4

    1. Admin
      Admin says

      แก้ไขเรียบร้อยฮ๊ะ

Leave A Reply

อีเมล์ของคุณจะไม่แสดงให้เห็น Your email address will not be published.

%d bloggers like this: