โหลดหนัง HD MINI-HD SUPER-HQ Full-HD 1080p VIP Master Zoom ซูม หนังใหม่ ออนไลน์ มาสเตอร์ ไทย จีน ฝรั่ง การ์ตูน

[MINI Super-HQ] Captain America: The First Avenger (2011) กัปตันอเมริกา อเวนเจอร์ที่ 1 [1080p] [พากย์ไทย 5.1 + อังกฤษ DTS] [บรรยายไทย + อังกฤษ] [เสียงไทย + ซับไทย] [ONE2UP]

2

โหลดหนัง  Captain America: The First Avenger (2011) กัปตันอเมริกา อเวนเจอร์ที่ 1

เรื่องย่อ Captain America: The First Avenger (2011) กัปตันอเมริกา อเวนเจอร์ที่ 1

Steve Rogers เด็กชายขี้โรคที่เติบโตขึ้นมาในช่วงสภาวะเศรษฐกิจตกต่ำ ช่วงสงครามโลกครั้งที่ 2 ด้วยความที่มีฐานะยากจน และร่างกายที่อ่อนแอ ทำให้เขาต้องต่อสู้ชีวิตอย่างยากลำบาก และเมื่อสงครามโลกขยายขอบเขตมาถึงอเมริกา เขาสมัครเข้าเป็นทหารเพื่อรับใช้ชาติ แต่เนื่องด้วยสภาพร่างกายที่อ่อนแอ เขาถูกปฏิเสฐจากทางกองทัพ แต่ความมุ่งมั่นของโรเจอร์ ไปเข้าตานายพลเชสเตอร์ ฟิลิปนายพลเชสเตอร์ ชวนโรเจอร์ มาเข้าร่วมโครงการลับ “Operation Rebirth” โปรเจ็คที่ทดลองเกี่ยวกับการสร้างสุดยอดทหารด้วย Super Soldier Serum ทำให้โรเจอร์กลายเป็นสุดยอดทหาร ที่มีใจรักชาติเต็มเปี่ยม และถูกส่งไปร่วมรบที่สมรภูมิที่ยุโรป ต่อต้านกองทัพของฮิตเลอร์เขาถูกเด็กวัยรุ่นคนหนึ่งรู้ถึงตัวตนที่แท้จริง เด็กคนนั้น คือ Bucky Barnes ซึ่งภายหลังโรเจอร์ได้รับเขาเป็นคู่หู ระหว่าง การรบกับ Baron Heinrich Zemo ทำให้ Bucky หายสาบสูญ ส่วนตัวโรเจอร์ตกลงในมหาสมุทร Arctic ทำให้ร่างกายของเขาถูกแช่แข็งมาตลอดห้าสิบปี ก่อนที่จะถูกต้นพบโดยเหล่า Avengers ตื่นขึ้นสู่ยุคปัจจุบัน!

Complete name : [MINI Super-HQ]_Captain.America.The.First.Avenger.2011.1080p.BluRay.DTS.x264.One2loadup.com.mkv
Format : Matroska
Format version : Version 4 / Version 2
File size : 4.33 GiB
Duration : 2 h 4 min
Overall bit rate mode : Variable
Overall bit rate : 4 988 kb/s
Movie name : [MINI Super-HQ]_Captain.America.The.First.Avenger.2011.1080p.BluRay.DTS.x264.One2loadup.com
Encoded date : UTC 2010-02-22 21:41:31
Writing application : mkvmerge v5.9.0 (‘On The Loose’) built on Dec 9 2012 15:37:01
Writing library : libebml v1.3.0 + libmatroska v1.4.0

Video
ID : 1
Format : AVC
Format/Info : Advanced Video Codec
Format profile : [email protected]
Format settings : CABAC / 4 Ref Frames
Format settings, CABAC : Yes
Format settings, ReFrames : 4 frames
Codec ID : V_MPEG4/ISO/AVC
Duration : 2 h 4 min
Bit rate mode : Variable
Bit rate : 3 500 kb/s
Maximum bit rate : 100.0 Mb/s
Width : 1 920 pixels
Height : 816 pixels
Display aspect ratio : 2.35:1
Frame rate mode : Constant
Frame rate : 23.976 FPS
Color space : YUV
Chroma subsampling : 4:2:0
Bit depth : 8 bits
Scan type : Progressive
Bits/(Pixel*Frame) : 0.093
Stream size : 3.03 GiB (70%)
Title : [MINI Super-HQ]_Captain.America.The.First.Avenger.2011.1080p.BluRay.DTS.x264.One2loadup.com
Writing library : x264 core 130 r2273 b3065e6
Encoding settings : cabac=1 / ref=4 / deblock=1:0:0 / analyse=0x3:0x133 / me=umh / subme=11 / psy=1 / psy_rd=1.00:0.15 / mixed_ref=1 / me_range=64 / chroma_me=1 / trellis=2 / 8x8dct=1 / cqm=0 / deadzone=21,11 / fast_pskip=1 / chroma_qp_offset=-3 / threads=16 / lookahead_threads=1 / sliced_threads=0 / nr=0 / decimate=1 / interlaced=0 / bluray_compat=0 / constrained_intra=0 / bframes=4 / b_pyramid=2 / b_adapt=2 / b_bias=0 / direct=3 / weightb=1 / open_gop=0 / weightp=2 / keyint=250 / keyint_min=23 / scenecut=40 / intra_refresh=0 / rc_lookahead=100 / rc=2pass / mbtree=1 / bitrate=3500 / ratetol=1.0 / qcomp=0.60 / qpmin=0 / qpmax=69 / qpstep=4 / cplxblur=20.0 / qblur=0.5 / vbv_maxrate=99999 / vbv_bufsize=99999 / nal_hrd=vbr / ip_ratio=1.40 / aq=1:1.00
Language : English
Default : Yes
Forced : No

Audio #1
ID : 2
Format : AC-3
Format/Info : Audio Coding 3
Codec ID : A_AC3
Duration : 2 h 4 min
Bit rate mode : Constant
Bit rate : 640 kb/s
Channel(s) : 6 channels
Channel positions : Front: L C R, Side: L R, LFE
Sampling rate : 48.0 kHz
Frame rate : 31.250 FPS (1536 SPF)
Bit depth : 16 bits
Compression mode : Lossy
Stream size : 569 MiB (13%)
Title : [THAI AC3 FROM BLU-RAY MASTER]
Language : Thai
Service kind : Complete Main
Default : Yes
Forced : No

Audio #2
ID : 3
Format : DTS
Format/Info : Digital Theater Systems
Codec ID : A_DTS
Duration : 2 h 4 min
Bit rate mode : Constant
Bit rate : 755 kb/s
Channel(s) : 6 channels
Channel positions : Front: L C R, Side: L R, LFE
Sampling rate : 48.0 kHz
Frame rate : 93.750 FPS (512 SPF)
Bit depth : 24 bits
Compression mode : Lossy
Stream size : 670 MiB (15%)
Title : ENG DTS
Language : English
Default : No
Forced : No

Text #1
ID : 4
Format : VobSub
Codec ID : S_VOBSUB
Codec ID/Info : Picture based subtitle format used on DVDs
Title : [SUB THAI 480P FROM BLU-RAY]
Language : Thai
Default : No
Forced : No

Text #2
ID : 5
Format : VobSub
Codec ID : S_VOBSUB
Codec ID/Info : Picture based subtitle format used on DVDs
Title : [SUB THAI 1080P FROM BLU-RAY]
Language : Thai
Default : No
Forced : No

Text #3
ID : 6
Format : PGS
Codec ID : S_HDMV/PGS
Codec ID/Info : Picture based subtitle format used on BDs/HD-DVDs
Title : [SUB THAI PGS FROM BLU-RAY]
Language : Thai
Default : No
Forced : No

Text #4
ID : 7
Format : PGS
Codec ID : S_HDMV/PGS
Codec ID/Info : Picture based subtitle format used on BDs/HD-DVDs
Title : [SUB THAI PGS FROM BLU-RAY] UNDER
Language : Thai
Default : No
Forced : No

Text #5
ID : 8
Format : PGS
Codec ID : S_HDMV/PGS
Codec ID/Info : Picture based subtitle format used on BDs/HD-DVDs
Title : ENG PGS
Language : English
Default : No
Forced : No

Text #6
ID : 9
Format : VobSub
Codec ID : S_VOBSUB
Codec ID/Info : Picture based subtitle format used on DVDs
Title : ENG 480P
Language : English
Default : No
Forced : No

DOWNLOAD


PART01 |||| PART02 |||| PART03 |||| PART04 |||| PART05

PART01 |||| PART02 |||| PART03 |||| PART04 |||| PART05

PART01 |||| PART02 |||| PART03 |||| PART04 |||| PART05

PART01 |||| PART02 |||| PART03 |||| PART04 |||| PART05


2 Comments
  1. นิชคุณ says

    ลิ้งเสียแล้วงั้บแอ๊ด

    1. Admin
      Admin says

      แก้ไขเรียบร้อยฮ๊ะ

Leave A Reply

Your email address will not be published.

%d bloggers like this: