[MINI Super-HQ] Wukong (2017) หงอคง กำเนิดเทพเจ้าวานร [1080p] [พากย์ไทย 5.1 + เสียงจีน DTS] [บรรยายไทย + อังกฤษ] [Modified] [เสียงไทย + ซับไทย] [PANDAFILE]

0

Wukong (2017) หงอคง กำเนิดเทพเจ้าวานร

โหลดหนัง  Wukong (2017) หงอคง กำเนิดเทพเจ้าวานร

Immortal Demon Slayer | July 14, 2017 (United States) Summary: A giant rebelled against the heavens. It was declared a devil and defeated. The immortal heart evolved into Sun Wukong. The heavens found him, and ravaged his home. He enters the heavenly ki... Read all
Countries: ChinaLanguages: Mandarin

เรื่องย่อ Wukong (2017) หงอคง กำเนิดเทพเจ้าวานร

ผู้มีถิ่นกำหนิดในหุบเขาฮั้วกั้วะ ถูกฮั้วจีซึ่งเป็นแม่ทัพสวรรค์หมายปองชีวิตแต่เขาได้รับการช่วยเหลือจากพระโพธิ์สัตว์และได้กลาย เป็นศิษย์ของเขา ในขณะเดียวกันหยางเจียนได้รับมอบหมายหน้าที่จากเบื้องบนให้สังหารจื่อเซี่ยผู้ที่เป็นทั้งลูกสาวของฮั้วจีและบุคคลที่เขาหลงรัก เพื่อแลกกับตำแหน่งในสรวงสวรรค์ และเทียนเผิง องค์รักษ์ของฮั้วจี ได้รับบัญชาการให้สืบหาข้อมูลของหงอคงชะตากรรมทำให้ทั้งสามคนมาพานพบกันที่สำนักเทียนจิ และการพบครั้งนี้จะทำให้ชีวิตของทั้งสามคนเปลี่ยนไปโดยสิ้นเชิง!!!

Complete name : [MINI Super-HQ]_Wu.kong.2017.1080p.BrRip.DTS.x264.One2loadup.com.mkv
Format : Matroska
Format version : Version 4
File size : 4.22 GiB
Duration : 2 h 3 min
Overall bit rate : 4 907 kb/s
Movie name : [MINI Super-HQ]_Wu.kong.2017.1080p.BrRip.DTS.x264.One2loadup.com
Encoded date : UTC 2017-11-14 22:19:30
Writing application : mkvmerge v9.7.1 (‘Pandemonium’) 64bit
Writing library : libebml v1.3.4 + libmatroska v1.4.5

Video
ID : 1
Format : AVC
Format/Info : Advanced Video Codec
Format profile : [email protected]
Format settings : CABAC / 4 Ref Frames
Format settings, CABAC : Yes
Format settings, ReFrames : 4 frames
Codec ID : V_MPEG4/ISO/AVC
Duration : 2 h 3 min
Bit rate : 3 233 kb/s
Width : 1 920 pixels
Height : 804 pixels
Display aspect ratio : 2.40:1
Frame rate mode : Constant
Frame rate : 24.000 FPS
Color space : YUV
Chroma subsampling : 4:2:0
Bit depth : 8 bits
Scan type : Progressive
Bits/(Pixel*Frame) : 0.087
Stream size : 2.78 GiB (66%)
Title : [MINI Super-HQ]_Wu.kong.2017.1080p.BrRip.DTS.x264.One2loadup.com
Writing library : x264 core 130 r2273 b3065e6
Encoding settings : cabac=1 / ref=3 / deblock=1:0:0 / analyse=0x3:0x113 / me=umh / subme=11 / psy=1 / psy_rd=1.00:0.00 / mixed_ref=1 / me_range=48 / chroma_me=1 / trellis=2 / 8x8dct=1 / cqm=0 / deadzone=21,11 / fast_pskip=1 / chroma_qp_offset=-2 / threads=10 / lookahead_threads=1 / sliced_threads=0 / nr=0 / decimate=1 / interlaced=0 / bluray_compat=0 / constrained_intra=0 / bframes=3 / b_pyramid=2 / b_adapt=1 / b_bias=0 / direct=1 / weightb=1 / open_gop=0 / weightp=2 / keyint=240 / keyint_min=24 / scenecut=40 / intra_refresh=0 / rc_lookahead=40 / rc=2pass / mbtree=1 / bitrate=3233 / ratetol=1.0 / qcomp=0.60 / qpmin=0 / qpmax=69 / qpstep=4 / cplxblur=20.0 / qblur=0.5 / ip_ratio=1.40 / aq=1:1.00
Language : Chinese
Default : Yes
Forced : No
Color range : Limited
Color primaries : BT.709
Transfer characteristics : BT.709
Matrix coefficients : BT.709

Audio #1
ID : 2
Format : AC-3
Format/Info : Audio Coding 3
Commercial name : Dolby Digital
Codec ID : A_AC3
Duration : 2 h 3 min
Bit rate mode : Constant
Bit rate : 448 kb/s
Channel(s) : 6 channels
Channel layout : L R C LFE Ls Rs
Sampling rate : 48.0 kHz
Frame rate : 31.250 FPS (1536 SPF)
Bit depth : 16 bits
Compression mode : Lossy
Stream size : 395 MiB (9%)
Title : Thai DVD Master 5.1
Language : Thai
Service kind : Complete Main
Default : Yes
Forced : Yes

Audio #2
ID : 3
Format : DTS
Format/Info : Digital Theater Systems
Codec ID : A_DTS
Duration : 2 h 3 min
Bit rate mode : Constant
Bit rate : 768 kb/s
Channel(s) : 6 channels
Channel layout : C L R Ls Rs LFE
Sampling rate : 48.0 kHz
Frame rate : 93.750 FPS (512 SPF)
Bit depth : 24 bits
Compression mode : Lossy
Delay relative to video : 2 s 0 ms
Stream size : 676 MiB (16%)
Title : Mandarin DTS
Language : Chinese
Default : No
Forced : No

Audio #3
ID : 4
Format : AC-3
Format/Info : Audio Coding 3
Commercial name : Dolby Digital
Codec ID : A_AC3
Duration : 2 h 3 min
Bit rate mode : Constant
Bit rate : 384 kb/s
Channel(s) : 6 channels
Channel layout : L R C LFE Ls Rs
Sampling rate : 48.0 kHz
Frame rate : 31.250 FPS (1536 SPF)
Bit depth : 16 bits
Compression mode : Lossy
Stream size : 338 MiB (8%)
Title : Cantonese AC3 5.1
Language : Chinese
Service kind : Complete Main
Default : No
Forced : No

Text #1
ID : 5
Format : VobSub
Muxing mode : zlib
Codec ID : S_VOBSUB
Codec ID/Info : Picture based subtitle format used on DVDs
Duration : 1 h 55 min
Bit rate : 1 508 b/s
Count of elements : 1157
Stream size : 1.24 MiB (0%)
Title : Thai 480p From DVD Master
Language : Thai
Default : No
Forced : No

Text #2
ID : 6
Format : VobSub
Muxing mode : zlib
Codec ID : S_VOBSUB
Codec ID/Info : Picture based subtitle format used on DVDs
Duration : 1 h 56 min
Bit rate : 2 382 b/s
Count of elements : 1159
Stream size : 1.99 MiB (0%)
Title : Thai 720p
Language : Thai
Default : No
Forced : No

Text #3
ID : 7
Format : VobSub
Muxing mode : zlib
Codec ID : S_VOBSUB
Codec ID/Info : Picture based subtitle format used on DVDs
Duration : 1 h 56 min
Bit rate : 3 850 b/s
Count of elements : 1159
Stream size : 3.21 MiB (0%)
Title : Thai 1080p
Language : Thai
Default : Yes
Forced : Yes

Text #4
ID : 8
Format : VobSub
Muxing mode : zlib
Codec ID : S_VOBSUB
Codec ID/Info : Picture based subtitle format used on DVDs
Duration : 1 h 56 min
Bit rate : 3 843 b/s
Count of elements : 1159
Stream size : 3.21 MiB (0%)
Title : Thai 1080p Yellow
Language : Thai
Default : No
Forced : No

Text #5
ID : 9
Format : VobSub
Muxing mode : zlib
Codec ID : S_VOBSUB
Codec ID/Info : Picture based subtitle format used on DVDs
Duration : 1 h 56 min
Bit rate : 3 849 b/s
Count of elements : 1159
Stream size : 3.21 MiB (0%)
Title : Thai 1080p Out
Language : Thai
Default : No
Forced : No

Text #6
ID : 10
Format : VobSub
Muxing mode : zlib
Codec ID : S_VOBSUB
Codec ID/Info : Picture based subtitle format used on DVDs
Duration : 1 h 56 min
Bit rate : 5 023 b/s
Count of elements : 1159
Stream size : 4.19 MiB (0%)
Title : Thai 1080p BIG
Language : Thai
Default : No
Forced : No

Text #7
ID : 11
Format : VobSub
Muxing mode : zlib
Codec ID : S_VOBSUB
Codec ID/Info : Picture based subtitle format used on DVDs
Duration : 1 h 56 min
Bit rate : 5 028 b/s
Count of elements : 1159
Stream size : 4.19 MiB (0%)
Title : Thai 1080p Out [BIG]
Language : Thai
Default : No
Forced : No

Text #8
ID : 12
Format : PGS
Muxing mode : zlib
Codec ID : S_HDMV/PGS
Codec ID/Info : Picture based subtitle format used on BDs/HD-DVDs
Duration : 1 h 56 min
Bit rate : 12.7 kb/s
Count of elements : 2320
Stream size : 10.6 MiB (0%)
Title : Thai PGS
Language : Thai
Default : No
Forced : No

Text #9
ID : 13
Format : PGS
Muxing mode : zlib
Codec ID : S_HDMV/PGS
Codec ID/Info : Picture based subtitle format used on BDs/HD-DVDs
Duration : 1 h 56 min
Bit rate : 13.1 kb/s
Count of elements : 2320
Stream size : 10.9 MiB (0%)
Title : Thai PGS Yellow
Language : Thai
Default : No
Forced : No

Text #10
ID : 14
Format : PGS
Muxing mode : zlib
Codec ID : S_HDMV/PGS
Codec ID/Info : Picture based subtitle format used on BDs/HD-DVDs
Duration : 1 h 56 min
Bit rate : 12.8 kb/s
Count of elements : 2320
Stream size : 10.7 MiB (0%)
Title : Thai PGS Out
Language : Thai
Default : No
Forced : No

Text #11
ID : 15
Format : PGS
Muxing mode : zlib
Codec ID : S_HDMV/PGS
Codec ID/Info : Picture based subtitle format used on BDs/HD-DVDs
Duration : 1 h 55 min
Bit rate : 10.1 kb/s
Count of elements : 2532
Stream size : 8.28 MiB (0%)
Title : English
Language : English
Default : No
Forced : No

Menu
00:00:00.000 : en:Chapter 1
00:05:15.125 : en:Chapter 2
00:10:49.458 : en:Chapter 3
00:17:35.542 : en:Chapter 4
00:23:01.417 : en:Chapter 5
00:28:16.042 : en:Chapter 6
00:32:11.250 : en:Chapter 7
00:40:29.792 : en:Chapter 8
00:45:03.583 : en:Chapter 9
00:54:59.667 : en:Chapter 10
00:59:58.375 : en:Chapter 11
01:06:46.167 : en:Chapter 12
01:10:38.083 : en:Chapter 13
01:16:19.792 : en:Chapter 14
01:23:50.625 : en:Chapter 15
01:28:39.292 : en:Chapter 16
01:33:35.708 : en:Chapter 17
01:38:29.083 : en:Chapter 18
01:46:52.458 : en:Chapter 19
01:55:53.000 : en:Chapter 20

DOWNLOAD


PART01 |||| PART02 |||| PART03 |||| PART04 |||| PART05

PART01 |||| PART02 |||| PART03 |||| PART04 |||| PART05

PART01 |||| PART02 |||| PART03 |||| PART04 |||| PART05

PART01 |||| PART02 |||| PART03 |||| PART04 |||| PART05

PART01 |||| PART02 |||| PART03 |||| PART04 |||| PART05


Leave A Reply

อีเมล์ของคุณจะไม่แสดงให้เห็น Your email address will not be published.

%d bloggers like this: