[MINI Super-HQ] The Proposal (2009) ลุ้นรักวิวาห์ฟ้าแลบ [1080p] [พากย์ไทย 5.1 + เสียงอังกฤษ DTS] [บรรยายไทย + อังกฤษ] [เสียงไทย + ซับไทย] [PANDAFILE]

2

โหลดหนัง The Proposal (2009) ลุ้นรักวิวาห์ฟ้าแลบ

The Proposal | June 19, 2009 (United States) Summary: A pushy boss forces her young assistant to marry her in order to keep her visa status in the U.S. and avoid deportation to Canada.
Countries: United StatesLanguages: English

เรื่องย่อ The Proposal (2009) ลุ้นรักวิวาห์ฟ้าแลบ

มากาเร็ต (แซนดร้า บูลล็อค) บก.สาว สุดเขี้ยว แห่งนิตยสารชื่อดังในนิวยอร์ค ที่ต้องถูกเนรเทศกลับแคนาดาอย่างกะทันหัน เพราะใบอนุญาตการทำงานสำหรับคนต่างด้าวในอเมริกาของเธอถูกปฏิเสธ เธอจึงต้องหาทางจัดการเรื่องนี้อย่างเร่งด่วน ต้องหาแพะรับบาปในการยืดอายุการทำงานในอเมริกาของเธอ และหายนะก็ตกมาถึง แอนดรูว์ (ไรอัน เรย์โนลด์ส) ผู้ช่วยหนุ่มหล่อหน้าใสของเธอเอง ที่ถูกจับมัดมือมัดเท้าประกาศแต่งงานสายฟ้าแลบแบบไม่ทันตั้งตัว นอกจากจะต้องเผชิญกับความสยดสยองและความเป็นมารร้ายของนายสาวในออฟฟิศแล้ว เขาจะยอมพลีกายเป็นทาสรักของเธอด้วยไม่ และยังมีเรื่องราววุ่นๆ เมื่อเธอจะต้องไปเยื่ยมครอบครัวของแอนดรูว์ ที่ไม่รู้ถึงความลับของทั้งสองคนนี้ ไกลถึงอลาสก้า

Complete name : [MINI Super-HQ]_The.Proposal.2009.×264.1080p.DTS.One2loadup.com.mkv
Format : Matroska
Format version : Version 4 / Version 2
File size : 3.60 GiB
Duration : 1 h 47 min
Overall bit rate : 4 788 kb/s
Movie name : [MINI Super-HQ]_The.Proposal.2009.×264.1080p.DTS.One2loadup.com
Encoded date : UTC 2010-02-22 21:41:31
Writing application : mkvmerge v5.9.0 (‘On The Loose’) built on Dec 9 2012 15:37:01
Writing library : libebml v1.3.0 + libmatroska v1.4.0

Video
ID : 1
Format : AVC
Format/Info : Advanced Video Codec
Format profile : [email protected]
Format settings, CABAC : Yes
Format settings, RefFrames : 4 frames
Codec ID : V_MPEG4/ISO/AVC
Duration : 1 h 47 min
Bit rate : 3 500 kb/s
Width : 1 920 pixels
Height : 800 pixels
Display aspect ratio : 2.40:1
Frame rate mode : Constant
Frame rate : 23.976 (24000/1001) FPS
Color space : YUV
Chroma subsampling : 4:2:0
Bit depth : 8 bits
Scan type : Progressive
Bits/(Pixel*Frame) : 0.095
Stream size : 2.68 GiB (74%)
Title : [MINI Super-HQ]_The.Proposal.2009.×264.1080p.DTS.One2loadup.com
Writing library : x264 core 146 r2538 121396c
Encoding settings : cabac=1 / ref=5 / deblock=1:-3:-3 / analyse=0x3:0x133 / me=tesa / subme=11 / psy=1 / psy_rd=1.00:0.15 / mixed_ref=1 / me_range=48 / chroma_me=1 / trellis=2 / 8x8dct=1 / cqm=0 / deadzone=21,11 / fast_pskip=1 / chroma_qp_offset=-3 / threads=54 / lookahead_threads=4 / sliced_threads=0 / nr=0 / decimate=1 / interlaced=0 / bluray_compat=1 / constrained_intra=0 / bframes=3 / b_pyramid=1 / b_adapt=2 / b_bias=0 / direct=3 / weightb=1 / open_gop=0 / weightp=1 / keyint=250 / keyint_min=1 / scenecut=40 / intra_refresh=0 / rc_lookahead=60 / rc=2pass / mbtree=1 / bitrate=3500 / ratetol=1.0 / qcomp=0.60 / qpmin=0 / qpmax=69 / qpstep=4 / cplxblur=20.0 / qblur=0.5 / ip_ratio=1.40 / aq=1:1.30
Language : English
Default : Yes
Forced : No

Audio #1
ID : 2
Format : DTS
Format/Info : Digital Theater Systems
Mode : 16
Format settings, Endianness : Big
Codec ID : A_DTS
Duration : 1 h 47 min
Bit rate mode : Constant
Bit rate : 755 kb/s
Channel(s) : 6 channels
Channel positions : Front: L C R, Side: L R, LFE
Sampling rate : 48.0 kHz
Frame rate : 93.750 FPS (512 SPF)
Bit depth : 24 bits
Compression mode : Lossy
Stream size : 582 MiB (16%)
Title : Eng DTS
Language : English
Default : Yes
Forced : Yes

Audio #2
ID : 3
Format : AC-3
Format/Info : Audio Coding 3
Format settings, Endianness : Big
Codec ID : A_AC3
Duration : 1 h 47 min
Bit rate mode : Constant
Bit rate : 384 kb/s
Channel(s) : 6 channels
Channel positions : Front: L C R, Side: L R, LFE
Sampling rate : 48.0 kHz
Frame rate : 31.250 FPS (1536 SPF)
Bit depth : 16 bits
Compression mode : Lossy
Stream size : 296 MiB (8%)
Title : Thai Dolby 5.1 ch
Language : Thai
Service kind : Complete Main
Default : No
Forced : No

Text #1
ID : 4
Format : VobSub
Codec ID : S_VOBSUB
Codec ID/Info : Picture based subtitle format used on DVDs
Title : Thai Vob 480p
Language : Thai
Default : Yes
Forced : Yes

Text #2
ID : 5
Format : VobSub
Codec ID : S_VOBSUB
Codec ID/Info : Picture based subtitle format used on DVDs
Title : Thai Vob 1080p
Language : Thai
Default : No
Forced : No

Text #3
ID : 6
Format : PGS
Codec ID : S_HDMV/PGS
Codec ID/Info : Picture based subtitle format used on BDs/HD-DVDs
Title : Thai PGS In
Language : Thai
Default : No
Forced : No

Text #4
ID : 7
Format : PGS
Codec ID : S_HDMV/PGS
Codec ID/Info : Picture based subtitle format used on BDs/HD-DVDs
Title : Thai PGS Out
Language : Thai
Default : No
Forced : No

Text #5
ID : 8
Format : PGS
Codec ID : S_HDMV/PGS
Codec ID/Info : Picture based subtitle format used on BDs/HD-DVDs
Title : Eng PGS
Language : English
Default : No
Forced : No

Menu
00:00:00.000 : en:Margaret, Andrew and Bob
00:08:55.535 : en:The Problem and the Solution
00:19:23.871 : en:A Promotion and a Proposal
00:29:32.103 : en:Telling the Family
00:37:17.401 : en:The Babymaker
00:47:06.615 : en:Graces Big Surprise
00:56:31.137 : en:Singing Each Other to Sleep
01:06:25.898 : en:Getting Low with Mother Nature
01:17:55.170 : en:Water Rescue
01:25:32.418 : en:The Wedding
01:37:40.980 : en:I’ll Take That As a Yes
01:43:02.426 : en:End Credits

DOWNLOAD


PART01 |||| PART02 |||| PART03 |||| PART04

PART01 |||| PART02 |||| PART03 |||| PART04

PART01 |||| PART02 |||| PART03 |||| PART04

PART01 |||| PART02 |||| PART03 |||| PART04

PART01 |||| PART02 |||| PART03 |||| PART04


2 Comments
  1. Pat says

    เรื่องย่อนะจะเป็นของ Pan Labyrinth นะครับ

    1. Admin
      Admin says

      ขอบคุณครับแก้ไขเรียบร้อยแล้ว

Leave A Reply

อีเมล์ของคุณจะไม่แสดงให้เห็น Your email address will not be published.

%d bloggers like this: