[MINI-HD] The Lion King 2: Simba’s Pride (1998) เดอะไลอ้อนคิง 2: ซิมบ้าเจ้าป่าทรนง [1080p] [พากย์ไทย 5.1 + เสียงอังกฤษ DTS] [บรรยายไทย + อังกฤษ] [เสียงไทย + ซับไทย] [PANDAFILE]

2

The Lion King 2: Simba's Pride (1998)

โหลดหนัง The Lion King 2: Simba’s Pride (1998) เดอะไลอ้อนคิง 2: ซิมบ้าเจ้าป่าทรนง

The Lion King II: Simba's Pride | October 27, 1998 (United States) Summary: Simba's daughter is the key to a resolution of a bitter feud between Simba's pride and the outcast pride led by the mate of Scar.
Countries: United States, AustraliaLanguages: English

เรื่องย่อ The Lion King 2: Simba’s Pride (1998) เดอะไลอ้อนคิง 2: ซิมบ้าเจ้าป่าทรนง

สัมผัสอานุภาพของคำว่า “อูเพนดี” ที่แปลว่า “ความรัก” เมื่อ เคียร่า ลูกสาวหัวรั้นของซิมบ้า ว่าที่ผู้สืบทอดเจ้าป่าผาทรนงได้หนีพ่อออกผจญภัยตามวัยอยากรู้ สิ่งเดียวที่ทีโมนและพุมบ้าทำได้คือคอยคุ้มครองเธอ โดยเฉพาะอย่างยิ่งเมื่อเคียร่าได้พบกับ โควู สิงโตหนุ่มน้อยผู้เลือกเดินตามรอยเท้าของสการ์จอมโหด เมื่อเคียร่าและโควูค้นหาดินแดนแห่ง “วัฏจักรของชีวิต” อันยิ่งใหญ่ที่เหมาะสมสำหรับพวกเขา ทั้งคู่พบว่ามันอาจเป็นชะตาลิขิตที่จะเรียกความทรนงของพวกเขากลับคืนมาอีกครั้ง เพื่อนำสันติสุขกลับคืนไปยังผาทรนงอันเป็นบ้านเกิด พบทีมดาราให้เสียงพากย์ชุดดั้เดิม พร้อมภาพแอนิเมชั่นอันงดงาม และเพลงเปี่ยมมนต์ขลัง การผจญภัยของเคียร่าและโควูจะทำให้ผู้ชมตื่นเต้นเช่นเดียวกับการสืบต่อเรื่องราว “วัฏจักรของชีวิต” อันแสนงดงามมอบให้กับแฟนๆ รุ่นใหม่

Complete name : [MINI-HD]_The.Lion.King.2.Simba’s.Pride.1998.1080p.x264.One2loadup.com.mkv
Format : Matroska
Format version : Version 4 / Version 2
File size : 3.03 GiB
Duration : 1 h 20 min
Overall bit rate : 5 359 kb/s
Encoded date : UTC 2017-03-18 07:46:00 / UTC 2017-03-17T09:17:56Z
Writing application : mkvmerge v8.3.0 (‘Over the Horizon’) 64bit
Writing library : libebml v1.3.1 + libmatroska v1.4.2 / Lavf55.12.0

Video
ID : 1
Format : AVC
Format/Info : Advanced Video Codec
Format profile : [email protected]
Format settings, CABAC : Yes
Format settings, RefFrames : 4 frames
Codec ID : V_MPEG4/ISO/AVC
Bit rate : 3 423 kb/s
Width : 1 920 pixels
Height : 1 080 pixels
Display aspect ratio : 16:9
Frame rate mode : Variable
Color space : YUV
Chroma subsampling : 4:2:0
Bit depth : 8 bits
Scan type : Progressive
Writing library : x264 core 142 r2479 dd79a61
Encoding settings : cabac=1 / ref=1 / deblock=1:0:0 / analyse=0x1:0x111 / me=hex / subme=2 / psy=1 / psy_rd=1.00:0.00 / mixed_ref=0 / me_range=16 / chroma_me=1 / trellis=0 / 8x8dct=0 / cqm=0 / deadzone=21,11 / fast_pskip=1 / chroma_qp_offset=0 / threads=12 / lookahead_threads=4 / sliced_threads=0 / nr=0 / decimate=1 / interlaced=0 / bluray_compat=0 / constrained_intra=0 / bframes=3 / b_pyramid=2 / b_adapt=1 / b_bias=0 / direct=1 / weightb=1 / open_gop=0 / weightp=1 / keyint=240 / keyint_min=24 / scenecut=40 / intra_refresh=0 / rc_lookahead=10 / rc=crf / mbtree=1 / crf=20.0 / qcomp=0.60 / qpmin=0 / qpmax=69 / qpstep=4 / vbv_maxrate=20000 / vbv_bufsize=25000 / crf_max=0.0 / nal_hrd=none / filler=0 / ip_ratio=1.40 / aq=1:1.00
Language : Thai
Default : Yes
Forced : Yes
Color range : Limited
Color primaries : BT.709
Transfer characteristics : BT.709
Matrix coefficients : BT.709
Statistics Tags Issue : mkvmerge v8.3.0 (‘Over the Horizon’) 64bit 2017-03-18 07:46:00 / mkvmerge v8.3.0 (‘Over the Horizon’) 64bit 2017-03-18 07:46:00 / UTC 2017-03-17T09:17:56Z
FromStats_BitRate : 3505042
FromStats_Duration : 01:20:49.863000000
FromStats_FrameCount : 116279
FromStats_StreamSize : 2124872242

Audio #1
ID : 2
Format : DTS
Format/Info : Digital Theater Systems
Mode : 16
Format settings, Endianness : Big
Codec ID : A_DTS
Duration : 1 h 20 min
Bit rate mode : Constant
Bit rate : 1 509 kb/s
Channel(s) : 6 channels
Channel positions : Front: L C R, Side: L R, LFE
Sampling rate : 48.0 kHz
Frame rate : 93.750 FPS (512 SPF)
Bit depth : 24 bits
Compression mode : Lossy
Stream size : 872 MiB (28%)
Title : Surround
Language : English
Default : No
Forced : No
Statistics Tags Issue : mkvmerge v8.3.0 (‘Over the Horizon’) 64bit 2017-03-18 07:46:00 / mkvmerge v8.3.0 (‘Over the Horizon’) 64bit 2017-03-18 07:46:00 / UTC 2017-03-17T09:17:56Z
FromStats_BitRate : 1508999
FromStats_Duration : 01:20:49.835000000
FromStats_FrameCount : 454672
FromStats_StreamSize : 914800064

Audio #2
ID : 3
Format : AC-3
Format/Info : Audio Coding 3
Mode : Dolby Digital
Format settings, Endianness : Big
Codec ID : A_AC3
Duration : 1 h 20 min
Bit rate mode : Constant
Bit rate : 320 kb/s
Channel(s) : 2 channels
Channel positions : Front: L R
Sampling rate : 48.0 kHz
Frame rate : 31.250 FPS (1536 SPF)
Bit depth : 16 bits
Compression mode : Lossy
Stream size : 185 MiB (6%)
Title : Stereo
Language : Thai
Service kind : Complete Main
Default : Yes
Forced : Yes
Statistics Tags Issue : mkvmerge v8.3.0 (‘Over the Horizon’) 64bit 2017-03-18 07:46:00 / mkvmerge v8.3.0 (‘Over the Horizon’) 64bit 2017-03-18 07:46:00 / UTC 2017-03-17T09:17:56Z
FromStats_BitRate : 320000
FromStats_Duration : 01:20:49.856000000
FromStats_FrameCount : 151558
FromStats_StreamSize : 193994240

Text #1
ID : 4
Format : PGS
Muxing mode : zlib
Codec ID : S_HDMV/PGS
Codec ID/Info : Picture based subtitle format used on BDs/HD-DVDs
Language : Thai
Default : No
Forced : Yes
Statistics Tags Issue : mkvmerge v8.3.0 (‘Over the Horizon’) 64bit 2017-03-18 07:46:00 / mkvmerge v8.3.0 (‘Over the Horizon’) 64bit 2017-03-18 07:46:00 / UTC 2017-03-17T09:17:56Z
FromStats_BitRate : 5685
FromStats_Duration : 01:14:50.236000000
FromStats_FrameCount : 1370
FromStats_StreamSize : 3191080

Text #2
ID : 5
Format : PGS
Muxing mode : zlib
Codec ID : S_HDMV/PGS
Codec ID/Info : Picture based subtitle format used on BDs/HD-DVDs
Language : Thai
Default : Yes
Forced : Yes
Statistics Tags Issue : mkvmerge v8.3.0 (‘Over the Horizon’) 64bit 2017-03-18 07:46:00 / mkvmerge v8.3.0 (‘Over the Horizon’) 64bit 2017-03-18 07:46:00 / UTC 2017-03-17T09:17:56Z
FromStats_BitRate : 9302
FromStats_Duration : 00:00:06.006000000
FromStats_FrameCount : 2
FromStats_StreamSize : 6984

Text #3
ID : 6
Format : PGS
Muxing mode : zlib
Codec ID : S_HDMV/PGS
Codec ID/Info : Picture based subtitle format used on BDs/HD-DVDs
Language : English
Default : No
Forced : No
Statistics Tags Issue : mkvmerge v8.3.0 (‘Over the Horizon’) 64bit 2017-03-18 07:46:00 / mkvmerge v8.3.0 (‘Over the Horizon’) 64bit 2017-03-18 07:46:00 / UTC 2017-03-17T09:17:56Z
FromStats_BitRate : 17674
FromStats_Duration : 01:15:13.888000000
FromStats_FrameCount : 1708
FromStats_StreamSize : 9972837

Menu
00:00:00.000 : :Chapter 1
00:03:33.248 : :Chapter 2
00:05:39.124 : :Chapter 3
00:09:16.174 : :Chapter 4
00:14:21.187 : :Chapter 5
00:19:09.809 : :Chapter 6
00:21:48.300 : :Chapter 7
00:26:54.023 : :Chapter 8
00:31:03.063 : :Chapter 9
00:33:00.597 : :Chapter 10
00:39:56.387 : :Chapter 11
00:44:47.220 : :Chapter 12
00:45:40.565 : :Chapter 13
00:50:38.070 : :Chapter 14
00:56:15.949 : :Chapter 15
00:59:51.665 : :Chapter 16
01:01:24.508 : :Chapter 17
01:05:01.558 : :Chapter 18
01:12:54.238 : :Chapter 19
01:15:20.635 : :Chapter 20

DOWNLOAD


PART01 |||| PART02 |||| PART03

PART01 |||| PART02 |||| PART03

PART01 |||| PART02 |||| PART03

PART01 |||| PART02 |||| PART03

PART01 |||| PART02 |||| PART03


2 Comments
  1. supachok says

    Part 2 โหลด ไม่ได้ ทั้งหมดเลยคับ

    1. Admin
      Admin says

      แก้ไขเรียบร้อยฮ๊ะ

Leave A Reply

อีเมล์ของคุณจะไม่แสดงให้เห็น Your email address will not be published.

%d bloggers like this: