[MINI Super-HQ] T2 Trainspotting (2017) แก๊งเมาแหลก พันธุ์แหกกฎ ภาค 2 [1080p] [พากย์ไทย 5.1 + เสียงอังกฤษ DTS] [บรรยายไทย + อังกฤษ] [เสียงไทย + ซับไทย] [PANDAFILE]

0

โหลดหนัง T2 Trainspotting (2017) แก๊งเมาแหลก พันธุ์แหกกฎ ภาค 2

T2 Trainspotting | March 31, 2017 (United States) Summary: After 20 years abroad, Mark Renton returns to Scotland and reunites with his old friends Sick Boy, Spud, and Begbie.
Countries: United KingdomLanguages: English, Bulgarian, Scots

เรื่องย่อ T2 Trainspotting (2017) แก๊งเมาแหลก พันธุ์แหกกฎ ภาค 2

เรื่องราว 20 ปีต่อมาของมิตรภาพในแก๊งค์เพื่อนซี้ขี้ยา หลังจากที่ เรนตั้น หักหลังเพื่อน เลือกหอบเงินก้อนโตและหนีไปใช้ชีวิตของตัวเองทิ้งให้ทุกคนต้องเผชิยหน้ากับชะตากรรมต่ำทรามกันต่อไป โดยทุกคนต่างมีเส้นทางชีวิตเป็นของตัวเอง ซึ่งก็เฮงซวยไม่ต่างไปจาก 20 ปีก่อนหน้านี้ เรนตั้นตัดสินใจกลับไปยังเอดินเบิร์กอีกครั้ง เพื่อพบกับเพื่อนเก่าอย่าง สปั๊ด ที่เมายาขั้นหนักจนคิดฆ่าตัวตาย และซิคบอยที่ต้องรับช่วงต่อกิจการบาร์ที่กำลังจะเจ๊งจากพ่อ การกลับมารวมตัวครั้งนี้ นำพวกเขาไปสู่การพัวพันกับด้านมืดของธุรกิจโกงและแบล็กเมล์ครั้งใหญ่ รวมถึงการเผชิญหน้ากับโจทย์เก่าเพื่อนซี้อย่าง เบ็กบี้ ที่เพิ่งออกจากคุก และเริ่มต้นตามล่าเพื่อแก้แค้นเพื่อนที่หักหลังเขาเมื่อ 20 ปีก่อน

Complete name : [MINI Super-HQ]_T2.Trainspotting.2017.1080p.BrRip.DTS.x264.One2loadup.com.mkv
Format : Matroska
Format version : Version 4
File size : 3.93 GiB
Duration : 1 h 57 min
Overall bit rate : 4 791 kb/s
Movie name : [MINI Super-HQ]_T2.Trainspotting.2017.1080p.BrRip.DTS.x264.One2loadup.com
Encoded date : UTC 2010-02-22 21:41:31
Writing application : mkvmerge v5.9.0 (‘On The Loose’) built on Dec 9 2012 15:37:01
Writing library : libebml v1.3.0 + libmatroska v1.4.0

Video
ID : 1
Format : AVC
Format/Info : Advanced Video Codec
Format profile : High@L4
Format settings : CABAC / 4 Ref Frames
Format settings, CABAC : Yes
Format settings, ReFrames : 4 frames
Codec ID : V_MPEG4/ISO/AVC
Duration : 1 h 57 min
Bit rate : 3 252 kb/s
Width : 1 920 pixels
Height : 1 036 pixels
Display aspect ratio : 1.85:1
Frame rate mode : Constant
Frame rate : 23.976 (24000/1001) FPS
Color space : YUV
Chroma subsampling : 4:2:0
Bit depth : 8 bits
Scan type : Progressive
Bits/(Pixel*Frame) : 0.068
Stream size : 2.71 GiB (69%)
Title : [MINI Super-HQ]_T2.Trainspotting.2017.1080p.BrRip.DTS.x264.One2loadup.com
Writing library : x264 core 130 r2273 b3065e6
Encoding settings : cabac=1 / ref=3 / deblock=1:0:0 / analyse=0x3:0x113 / me=umh / subme=11 / psy=1 / psy_rd=1.00:0.00 / mixed_ref=1 / me_range=48 / chroma_me=1 / trellis=2 / 8x8dct=1 / cqm=0 / deadzone=21,11 / fast_pskip=1 / chroma_qp_offset=-2 / threads=12 / lookahead_threads=1 / sliced_threads=0 / nr=0 / decimate=1 / interlaced=0 / bluray_compat=0 / constrained_intra=0 / bframes=3 / b_pyramid=2 / b_adapt=1 / b_bias=0 / direct=1 / weightb=1 / open_gop=0 / weightp=2 / keyint=240 / keyint_min=24 / scenecut=40 / intra_refresh=0 / rc_lookahead=40 / rc=2pass / mbtree=1 / bitrate=3252 / ratetol=1.0 / qcomp=0.60 / qpmin=0 / qpmax=69 / qpstep=4 / cplxblur=20.0 / qblur=0.5 / ip_ratio=1.40 / aq=1:1.00
Language : English
Default : Yes
Forced : No
Color range : Limited
Color primaries : BT.709
Transfer characteristics : BT.709
Matrix coefficients : BT.709

Audio #1
ID : 2
Format : AC-3
Format/Info : Audio Coding 3
Commercial name : Dolby Digital
Codec ID : A_AC3
Duration : 1 h 57 min
Bit rate mode : Constant
Bit rate : 640 kb/s
Channel(s) : 6 channels
Channel layout : L R C LFE Ls Rs
Sampling rate : 48.0 kHz
Frame rate : 31.250 FPS (1536 SPF)
Bit depth : 16 bits
Compression mode : Lossy
Stream size : 537 MiB (13%)
Title : Thai BluRay Master
Language : Thai
Service kind : Complete Main
Default : Yes
Forced : Yes

Audio #2
ID : 3
Format : DTS
Format/Info : Digital Theater Systems
Codec ID : A_DTS
Duration : 1 h 57 min
Bit rate mode : Constant
Bit rate : 755 kb/s
Channel(s) : 6 channels
Channel layout : C L R Ls Rs LFE
Sampling rate : 48.0 kHz
Frame rate : 93.750 FPS (512 SPF)
Bit depth : 24 bits
Compression mode : Lossy
Stream size : 633 MiB (16%)
Title : English DTS
Language : English
Default : No
Forced : No

Text #1
ID : 4
Format : VobSub
Codec ID : S_VOBSUB
Codec ID/Info : Picture based subtitle format used on DVDs
Title : Thai Forced
Language : Thai
Default : Yes
Forced : Yes

Text #2
ID : 5
Format : VobSub
Codec ID : S_VOBSUB
Codec ID/Info : Picture based subtitle format used on DVDs
Title : Thai 480p
Language : Thai
Default : No
Forced : No

Text #3
ID : 6
Format : VobSub
Codec ID : S_VOBSUB
Codec ID/Info : Picture based subtitle format used on DVDs
Title : Thai 1080p
Language : Thai
Default : No
Forced : No

Text #4
ID : 7
Format : VobSub
Codec ID : S_VOBSUB
Codec ID/Info : Picture based subtitle format used on DVDs
Title : Thai 1080p Yellow
Language : Thai
Default : No
Forced : No

Text #5
ID : 8
Format : VobSub
Codec ID : S_VOBSUB
Codec ID/Info : Picture based subtitle format used on DVDs
Title : Thai 1080p BIG
Language : Thai
Default : No
Forced : No

Text #6
ID : 9
Format : VobSub
Codec ID : S_VOBSUB
Codec ID/Info : Picture based subtitle format used on DVDs
Title : Thai Commentary
Language : Thai
Default : No
Forced : No

Text #7
ID : 10
Format : PGS
Codec ID : S_HDMV/PGS
Codec ID/Info : Picture based subtitle format used on BDs/HD-DVDs
Title : Thai PGS BluRay Master
Language : Thai
Default : No
Forced : No

Text #8
ID : 11
Format : PGS
Codec ID : S_HDMV/PGS
Codec ID/Info : Picture based subtitle format used on BDs/HD-DVDs
Title : Thai PGS In
Language : Thai
Default : No
Forced : No

Text #9
ID : 12
Format : PGS
Codec ID : S_HDMV/PGS
Codec ID/Info : Picture based subtitle format used on BDs/HD-DVDs
Title : English
Language : English
Default : No
Forced : No

Menu
00:00:00.000 : en:Chapter 01
00:08:03.274 : en:Chapter 02
00:14:26.574 : en:Chapter 03
00:20:20.552 : en:Chapter 04
00:27:35.236 : en:Chapter 05
00:36:22.138 : en:Chapter 06
00:44:13.192 : en:Chapter 07
00:52:33.358 : en:Chapter 08
00:57:29.821 : en:Chapter 09
01:03:28.179 : en:Chapter 10
01:09:31.750 : en:Chapter 11
01:15:48.752 : en:Chapter 12
01:22:57.305 : en:Chapter 13
01:31:03.332 : en:Chapter 14
01:37:39.979 : en:Chapter 15
01:45:56.558 : en:Chapter 16

DOWNLOAD


PART01 |||| PART02 |||| PART03 |||| PART04

PART01 |||| PART02 |||| PART03 |||| PART04

PART01 |||| PART02 |||| PART03 |||| PART04

PART01 |||| PART02 |||| PART03 |||| PART04

PART01 |||| PART02 |||| PART03 |||| PART04


Leave A Reply

อีเมล์ของคุณจะไม่แสดงให้เห็น Your email address will not be published.

%d bloggers like this: