[MINI Super-HQ] Spider-Man (2002) ไอ้แมงมุม [1080p] [พากย์ไทย 5.1 + เสียงอังกฤษ DTS] [บรรยายไทย + อังกฤษ] [เสียงไทย + ซับไทย] [PANDAFILE]

10

โหลดหนัง Spider-Man (2002) ไอ้แมงมุม

Spider-Man | May 3, 2002 (United States) Summary: When bitten by a genetically modified spider, a nerdy, shy, and awkward high school student gains spider-like abilities that he eventually must use to fight evil as a superhero after tragedy... Read all
Countries: United StatesLanguages: English

เรื่องย่อ Spider-Man (2002) ไอ้แมงมุม

หนุ่มวันรุ่นกำพร้า ปีเตอร์ ปาร์คเกอร์ อาศัยอยู่กับป้าเมย์และลุงเบน ในเมืองควีนส์ นิวยอร์ค ปีเตอร์เป็นเด็กนักเรียนธรรมดา ซึ่งเรียนไปพร้อมกับการทำงานพิเศษเป็นช่างภาพของเดลี่ บูเกิ้ล เขาแอบหลงรักสาวสวย แมรี่ เจน วัตสัน อย่างเงียบๆ ระหว่างการทัศนศึกษาในสถาบันวิทยาศาสตร์ที่กำลังสาธิตการทดลองเกี่ยวกับแมงมุมอยู่นั้นปีเตอร์ถูกแมงมุมที่ถูกดัดแปลงทางพันธุกรรมกัดเข้าที่แขน จากนั้นไม่นานเขาพบว่าตัวเองมีพลังพิเศษขึ้นมาเขาต้องพบกับเรื่องเศร้าเมื่อลุงเบนถูกฆ่าเขาเสียใจมากและคงจำคำพูดของลุงเบนที่ว่า “พลังอำนาจอันยิ่งใหญ่จะมาพร้อมกับความรับผิดชอบอันมหาศาล” เขาต้องต่อสู้กับเหล่าร้ายและ อาชญากรรมทั้งหมดในร่างของ “ไอ้แมงมุม” ซึ่งรวมไปถึง “ก็อบลินตัวเขียว” ศัตรูตัวฉกาจของไอ้แมงมุม

Complete name : [MINI Super-HQ]_Spider-Man.2002.1080p.BluRay.DTS.x264.One2loadup.com.mkv
Format : Matroska
Format version : Version 4 / Version 2
File size : 4.31 GiB
Duration : 2 h 1 min
Overall bit rate mode : Variable
Overall bit rate : 5 086 kb/s
Movie name : [MINI Super-HQ]_Spider-Man.2002.1080p.BluRay.DTS.x264.One2loadup.com
Encoded date : UTC 2015-03-01 05:04:40
Writing application : mkvmerge v7.3.0 (‘Nouages’) 32bit built on Oct 22 2014 18:44:01
Writing library : libebml v1.3.0 + libmatroska v1.4.1

Video
ID : 1
Format : AVC
Format/Info : Advanced Video Codec
Format profile : [email protected]
Format settings, CABAC : Yes
Format settings, RefFrames : 4 frames
Codec ID : V_MPEG4/ISO/AVC
Duration : 2 h 1 min
Bit rate mode : Variable
Bit rate : 3 630 kb/s
Maximum bit rate : 100.0 Mb/s
Width : 1 920 pixels
Height : 1 036 pixels
Display aspect ratio : 1.85:1
Frame rate mode : Constant
Frame rate : 23.976 (23976/1000) FPS
Color space : YUV
Chroma subsampling : 4:2:0
Bit depth : 8 bits
Scan type : Progressive
Bits/(Pixel*Frame) : 0.076
Stream size : 3.07 GiB (71%)
Title : [MINI Super-HQ]_Spider-Man.2002.1080p.BluRay.DTS.x264.One2loadup.com
Writing library : x264 core 130 r2273 b3065e6
Encoding settings : cabac=1 / ref=4 / deblock=1:0:0 / analyse=0x3:0x133 / me=umh / subme=11 / psy=1 / psy_rd=1.00:0.15 / mixed_ref=1 / me_range=64 / chroma_me=1 / trellis=2 / 8x8dct=1 / cqm=0 / deadzone=21,11 / fast_pskip=1 / chroma_qp_offset=-3 / threads=16 / lookahead_threads=1 / sliced_threads=0 / nr=0 / decimate=1 / interlaced=0 / bluray_compat=0 / constrained_intra=0 / bframes=4 / b_pyramid=2 / b_adapt=2 / b_bias=0 / direct=3 / weightb=1 / open_gop=0 / weightp=2 / keyint=250 / keyint_min=23 / scenecut=40 / intra_refresh=0 / rc_lookahead=100 / rc=2pass / mbtree=1 / bitrate=3630 / ratetol=1.0 / qcomp=0.60 / qpmin=0 / qpmax=69 / qpstep=4 / cplxblur=20.0 / qblur=0.5 / vbv_maxrate=99999 / vbv_bufsize=99999 / nal_hrd=vbr / ip_ratio=1.40 / aq=1:1.00
Language : English
Default : Yes
Forced : No

Audio #1
ID : 2
Format : AC-3
Format/Info : Audio Coding 3
Format settings, Endianness : Big
Codec ID : A_AC3
Duration : 2 h 1 min
Bit rate mode : Constant
Bit rate : 640 kb/s
Channel(s) : 6 channels
Channel positions : Front: L C R, Side: L R, LFE
Sampling rate : 48.0 kHz
Frame rate : 31.250 FPS (1536 SPF)
Bit depth : 16 bits
Compression mode : Lossy
Stream size : 555 MiB (13%)
Title : [THAI AC3 FROM BLU-RAY MASTER]
Language : Thai
Service kind : Complete Main
Default : Yes
Forced : No

Audio #2
ID : 3
Format : DTS
Format/Info : Digital Theater Systems
Mode : 16
Format settings, Endianness : Big
Codec ID : A_DTS
Duration : 2 h 1 min
Bit rate mode : Constant
Bit rate : 755 kb/s
Channel(s) : 6 channels
Channel positions : Front: L C R, Side: L R, LFE
Sampling rate : 48.0 kHz
Frame rate : 93.750 FPS (512 SPF)
Bit depth : 24 bits
Compression mode : Lossy
Stream size : 654 MiB (15%)
Title : ENG DTS
Language : English
Default : No
Forced : No

Text #1
ID : 4
Format : VobSub
Codec ID : S_VOBSUB
Codec ID/Info : Picture based subtitle format used on DVDs
Duration : 1 h 52 min
Bit rate : 2 121 b/s
Count of elements : 1190
Stream size : 1.70 MiB (0%)
Title : [SUB THAI 480P FROM BLU-RAY]
Language : Thai
Default : No
Forced : No

Text #2
ID : 5
Format : VobSub
Codec ID : S_VOBSUB
Codec ID/Info : Picture based subtitle format used on DVDs
Duration : 1 h 52 min
Bit rate : 7 516 b/s
Count of elements : 1190
Stream size : 6.03 MiB (0%)
Title : [SUB THAI 1080P FROM BLU-RAY]
Language : Thai
Default : No
Forced : No

Text #3
ID : 6
Format : PGS
Codec ID : S_HDMV/PGS
Codec ID/Info : Picture based subtitle format used on BDs/HD-DVDs
Duration : 1 h 52 min
Bit rate : 26.3 kb/s
Count of elements : 2380
Stream size : 21.1 MiB (0%)
Title : [SUB THAI PGS FROM BLU-RAY]
Language : Thai
Default : No
Forced : No

Text #4
ID : 7
Format : PGS
Codec ID : S_HDMV/PGS
Codec ID/Info : Picture based subtitle format used on BDs/HD-DVDs
Duration : 1 h 52 min
Bit rate : 28.0 kb/s
Count of elements : 2400
Stream size : 22.4 MiB (1%)
Title : [SUB ENG PGS FROM BLU-RAY]
Language : English
Default : No
Forced : No

Text #5
ID : 8
Format : VobSub
Codec ID : S_VOBSUB
Codec ID/Info : Picture based subtitle format used on DVDs
Duration : 1 h 52 min
Bit rate : 2 380 b/s
Count of elements : 1200
Stream size : 1.91 MiB (0%)
Title : [SUB ENG 480P FROM BLU-RAY]
Language : English
Default : No
Forced : No

DOWNLOAD


PART01 |||| PART02 |||| PART03 |||| PART04 |||| PART05

PART01 |||| PART02 |||| PART03 |||| PART04 |||| PART05

PART01 |||| PART02 |||| PART03 |||| PART04 |||| PART05

PART01 |||| PART02 |||| PART03 |||| PART04 |||| PART05

PART01 |||| PART02 |||| PART03 |||| PART04 |||| PART05


10 Comments
  1. Sattrawood884
    Sattrawood884 says

    โหลดไม่ได้ครับบบบบ

    1. Admin
      Admin says

      แก้ให้แล้วนะฮ๊ะ

  2. Orca
    Orca says

    ลิ้งเสียแล้วครับ ช่วยแก้หน่อยครับ

    1. Admin
      Admin says

      แก้ให้แล้วฮ๊ะ

  3. Pinyo
    Pinyo says

    รบกวนตรวจสอบครับ โหลดๆ หลุดๆ ครับ ขอบคุณมากครับ

    1. Admin
      Admin says

      แก้ไขเรียบร้อยฮ๊ะ

  4. Panitan Muenduang
    Panitan Muenduang says

    อัพไฟล์ใหม่ให้หน่อยได้ไหมคับ

    1. Admin
      Admin says

      แก้ไขเรียบร้อยฮ๊ะ

  5. ฺBESTNATTAPON says

    ไฟล์เสียครับบ

    1. Admin
      Admin says

      แก้ไขเรียบร้อยฮ๊ะ

Leave A Reply

อีเมล์ของคุณจะไม่แสดงให้เห็น Your email address will not be published.

%d bloggers like this: