[MINI Super-HQ] Sleepless (2017) คืนเดือด คนระห่ำ [1080p] [พากย์ไทย DTS + เสียงอังกฤษ DTS] [บรรยายไทย + อังกฤษ] [เสียงไทย + ซับไทย] [OPENLOAD]

2

Sleepless (2017)

โหลดหนัง Sleepless (2017) คืนเดือด คนระห่ำ 

Sleepless: Eine tödliche Nacht (2017) 1h 35min | Action, Crime, Thriller | 9 March 2017 (Germany) Summary: A cop with a connection to the criminal underworld scours a nightclub in search of his kidnapped son.
Countries: USALanguages: English

เรื่องย่อ Sleepless (2017) คืนเดือด คนระห่ำ

Sleepless วินเซนท์ ดาวน์ส ตำรวจที่พัวพันอยู่กับอาชญากรรมใต้ดิน ได้ขโมยยาเสพติดล็อตใหญ่จากเจ้าพ่อค้ายาเสพติดไม่นาน เมื่อพ่อค้ายาเสพติดได้สืบรู้ว่านี่เป็นฝีมือของวินเซนท์ เขาจึงได้ออกคำสั่งเพื่อลักพาตัวลูกชายของวินเซนท์ โดยมีเงื่อนไขว่าวินเซนท์จะต้องเอายาทั้งหมดไปคืน เพื่อแลกกับชีวิตลูกของเขา แต่ปัญหากลับหนักอึ้งขึ้นไปอีก เมื่อยาที่เขาขโมยมานั้นได้หายไป เขาจึงต้องออกไล่ล่ายาเสพติดพร้อมหาทางช่วยชีวิตลูกของเขาให้ได้

Complete name : [MINI Super-HQ]_Sleepless.2017.1080p.BrRip.DTS.x264.One2loadup.com.mkv
Format : Matroska
Format version : Version 4
File size : 4.44 GiB
Duration : 1 h 35 min
Overall bit rate mode : Variable
Overall bit rate : 6 672 kb/s
Movie name : [MINI Super-HQ]_Sleepless.2017.1080p.BrRip.DTS.x264.One2loadup.com
Encoded date : UTC 2010-02-22 21:41:31
Writing application : mkvmerge v5.9.0 (‘On The Loose’) built on Dec 9 2012 15:37:01
Writing library : libebml v1.3.0 + libmatroska v1.4.0

Video
ID : 1
Format : AVC
Format/Info : Advanced Video Codec
Format profile : [email protected]
Format settings : CABAC / 4 Ref Frames
Format settings, CABAC : Yes
Format settings, ReFrames : 4 frames
Codec ID : V_MPEG4/ISO/AVC
Duration : 1 h 35 min
Bit rate mode : Variable
Bit rate : 5 050 kb/s
Maximum bit rate : 24.0 Mb/s
Width : 1 920 pixels
Height : 800 pixels
Display aspect ratio : 2.40:1
Frame rate mode : Constant
Frame rate : 23.976 (24000/1001) FPS
Color space : YUV
Chroma subsampling : 4:2:0
Bit depth : 8 bits
Scan type : Progressive
Bits/(Pixel*Frame) : 0.137
Stream size : 3.35 GiB (75%)
Title : [MINI Super-HQ]_Sleepless.2017.1080p.BrRip.DTS.x264.One2loadup.com
Writing library : x264 core 148 r2762 90a61ec
Encoding settings : cabac=1 / ref=5 / deblock=1:-3:-3 / analyse=0x3:0x113 / me=umh / subme=10 / psy=1 / psy_rd=1.00:0.00 / mixed_ref=1 / me_range=48 / chroma_me=1 / trellis=2 / 8x8dct=1 / cqm=0 / deadzone=21,11 / fast_pskip=0 / chroma_qp_offset=-2 / threads=8 / lookahead_threads=1 / sliced_threads=0 / nr=0 / decimate=1 / interlaced=0 / bluray_compat=0 / constrained_intra=0 / bframes=8 / b_pyramid=1 / b_adapt=2 / b_bias=0 / direct=1 / weightb=1 / open_gop=0 / weightp=2 / keyint=240 / keyint_min=24 / scenecut=40 / intra_refresh=0 / rc_lookahead=60 / rc=2pass / mbtree=1 / bitrate=5050 / ratetol=1.0 / qcomp=0.60 / qpmin=0 / qpmax=69 / qpstep=4 / cplxblur=20.0 / qblur=0.5 / vbv_maxrate=24000 / vbv_bufsize=24000 / nal_hrd=vbr / filler=0 / ip_ratio=1.40 / aq=1:1.00
Language : English
Default : Yes
Forced : No

Audio #1
ID : 2
Format : DTS
Format/Info : Digital Theater Systems
Codec ID : A_DTS
Duration : 1 h 35 min
Bit rate mode : Constant
Bit rate : 755 kb/s
Channel(s) : 6 channels
Channel layout : C L R Ls Rs LFE
Sampling rate : 48.0 kHz
Frame rate : 93.750 FPS (512 SPF)
Bit depth : 24 bits
Compression mode : Lossy
Stream size : 514 MiB (11%)
Title : Thai DTS BluRay Master
Language : Thai
Default : Yes
Forced : Yes

Audio #2
ID : 3
Format : DTS
Format/Info : Digital Theater Systems
Codec ID : A_DTS
Duration : 1 h 35 min
Bit rate mode : Constant
Bit rate : 755 kb/s
Channel(s) : 6 channels
Channel layout : C L R Ls Rs LFE
Sampling rate : 48.0 kHz
Frame rate : 93.750 FPS (512 SPF)
Bit depth : 24 bits
Compression mode : Lossy
Stream size : 514 MiB (11%)
Title : English DTS
Language : English
Default : No
Forced : No

Text #1
ID : 4
Format : VobSub
Codec ID : S_VOBSUB
Codec ID/Info : Picture based subtitle format used on DVDs
Title : Thai 480p
Language : Thai
Default : No
Forced : No

Text #2
ID : 5
Format : VobSub
Codec ID : S_VOBSUB
Codec ID/Info : Picture based subtitle format used on DVDs
Title : Thai 720p
Language : Thai
Default : No
Forced : No

Text #3
ID : 6
Format : VobSub
Codec ID : S_VOBSUB
Codec ID/Info : Picture based subtitle format used on DVDs
Title : Thai 1080p
Language : Thai
Default : Yes
Forced : Yes

Text #4
ID : 7
Format : VobSub
Codec ID : S_VOBSUB
Codec ID/Info : Picture based subtitle format used on DVDs
Title : Thai 1080p Yellow
Language : Thai
Default : No
Forced : No

Text #5
ID : 8
Format : VobSub
Codec ID : S_VOBSUB
Codec ID/Info : Picture based subtitle format used on DVDs
Title : Thai 1080p Out
Language : Thai
Default : No
Forced : No

Text #6
ID : 9
Format : VobSub
Codec ID : S_VOBSUB
Codec ID/Info : Picture based subtitle format used on DVDs
Title : Thai 1080p BIG
Language : Thai
Default : No
Forced : No

Text #7
ID : 10
Format : PGS
Codec ID : S_HDMV/PGS
Codec ID/Info : Picture based subtitle format used on BDs/HD-DVDs
Title : Thai PGS BluRay Master
Language : Thai
Default : No
Forced : No

Text #8
ID : 11
Format : PGS
Codec ID : S_HDMV/PGS
Codec ID/Info : Picture based subtitle format used on BDs/HD-DVDs
Title : Thai PGS Out
Language : Thai
Default : No
Forced : No

Text #9
ID : 12
Format : PGS
Codec ID : S_HDMV/PGS
Codec ID/Info : Picture based subtitle format used on BDs/HD-DVDs
Title : English
Language : English
Default : No
Forced : No

Menu
00:00:00.000 : en:Chapter 01
00:05:26.201 : en:Chapter 02
00:11:02.704 : en:Chapter 03
00:16:12.930 : en:Chapter 04
00:22:34.228 : en:Chapter 05
00:28:45.933 : en:Chapter 06
00:32:26.027 : en:Chapter 07
00:36:32.690 : en:Chapter 08
00:41:12.845 : en:Chapter 09
00:47:02.403 : en:Chapter 10
00:52:18.969 : en:Chapter 11
00:57:47.547 : en:Chapter 12
01:00:11.024 : en:Chapter 13
01:04:05.633 : en:Chapter 14
01:09:02.972 : en:Chapter 15
01:14:02.438 : en:Chapter 16
01:17:14.588 : en:Chapter 17
01:21:15.037 : en:Chapter 18
01:26:49.371 : en:Chapter 19
01:29:10.095 : en:Chapter 20

 

DOWNLOAD


PART01 |||| PART02 |||| PART03 |||| PART04 |||| PART05

PART01 |||| PART02 |||| PART03 |||| PART04 |||| PART05

PART01 |||| PART02 |||| PART03 |||| PART04 |||| PART05

PART01 |||| PART02 |||| PART03 |||| PART04 |||| PART05


2 Comments
  1. Sukumchat Takaew
    Sukumchat Takaew says

    เรื่องนี้ไม่มี vip หรอครับ

    1. Admin
      Admin says

      แก้ไขเรียบร้อยฮ๊ะ

Leave A Reply

Your email address will not be published.