[MINI-HD] Once Upon A Time (2017) สามชาติสามภพ ป่าท้อสิบหลี่ [MP4] [1080p] [Soundtrack บรรยายไทย] [PANDAFILE]

6

โหลดหนัง Once Upon A Time (2017) สามชาติสามภพ ป่าท้อสิบหลี่

Once Upon A Time | August 11, 2017 (United States) Summary: An immortal woman reconnects with a love from her past life.
Countries: ChinaLanguages: Mandarin

เรื่องย่อ Once Upon A Time (2017) สามชาติสามภพ ป่าท้อสิบหลี่

เรื่องราวความรักของป๋ายเฉียน แห่งชิงชิว และรัชทายาทเผ่าสวรรค์นามเยี่ยหัว สามร้อยปีก่อน นางกระโดดลงจากแท่นประหารเซียนอย่างเด็ดเดี่ยว ให้ตัวเขาที่อีกฟากของกระจกได้เห็นนางลาจากสู่ต่างภพ ด้วยสองตา นับแต่นั้นมา หญิงมนุษย์นาม “ซู่ซู่” ได้สูญสลาย กลายเป็นเพียงฝันร้ายตื่นหนึ่ง…

Complete name : [MINI-HD]_Once.Upon.A Time.2017.1080p.Web-DL.AAC.x264.One2loadup.com.mp4
Format : MPEG-4
Format profile : Base Media
Codec ID : isom (isom/avc1/iso6)
File size : 1.46 GiB
Duration : 1 h 49 min
Overall bit rate mode : Variable
Overall bit rate : 1 912 kb/s
Encoded date : UTC 2017-09-08 17:18:01
Tagged date : UTC 2017-09-08 17:18:01

Video
ID : 1
Format : AVC
Format/Info : Advanced Video Codec
Format profile : [email protected]
Format settings, CABAC : Yes
Format settings, RefFrames : 4 frames
Codec ID : avc1
Codec ID/Info : Advanced Video Coding
Duration : 1 h 49 min
Bit rate : 1 817 kb/s
Maximum bit rate : 12.3 Mb/s
Width : 1 264 pixels
Height : 528 pixels
Display aspect ratio : 2.40:1
Frame rate mode : Constant
Frame rate : 25.000 FPS
Color space : YUV
Chroma subsampling : 4:2:0
Bit depth : 8 bits
Scan type : Progressive
Bits/(Pixel*Frame) : 0.109
Stream size : 1.39 GiB (95%)
Title : Video
Writing library : x264 core 146 r2538 121396c
Encoding settings : cabac=1 / ref=3 / deblock=1:0:0 / analyse=0x3:0x113 / me=hex / subme=7 / psy=1 / psy_rd=1.00:0.00 / mixed_ref=1 / me_range=16 / chroma_me=1 / trellis=1 / 8x8dct=1 / cqm=0 / deadzone=21,11 / fast_pskip=1 / chroma_qp_offset=-2 / threads=12 / lookahead_threads=2 / sliced_threads=0 / nr=0 / decimate=1 / interlaced=0 / bluray_compat=0 / constrained_intra=0 / bframes=3 / b_pyramid=2 / b_adapt=1 / b_bias=0 / direct=1 / weightb=1 / open_gop=0 / weightp=2 / keyint=250 / keyint_min=25 / scenecut=40 / intra_refresh=0 / rc_lookahead=40 / rc=crf / mbtree=1 / crf=22.0 / qcomp=0.60 / qpmin=0 / qpmax=69 / qpstep=4 / ip_ratio=1.40 / aq=1:1.00
Encoded date : UTC 2017-09-08 17:18:01
Tagged date : UTC 2017-09-08 17:18:20

Audio
ID : 2
Format : AAC
Format/Info : Advanced Audio Codec
Format profile : LC
Codec ID : 40
Duration : 1 h 49 min
Bit rate mode : Variable
Bit rate : 91.8 kb/s
Maximum bit rate : 120 kb/s
Channel(s) : 2 channels
Channel positions : Front: L R
Sampling rate : 44.1 kHz
Frame rate : 43.066 FPS (1024 SPF)
Compression mode : Lossy
Stream size : 71.8 MiB (5%)
Title :
Encoded date : UTC 2017-09-08 16:34:40
Tagged date : UTC 2017-09-08 17:18:20

DOWNLOAD


PART01 |||| PART02

PART01 |||| PART02

PART01 |||| PART02

PART01 |||| PART02

PART01 |||| PART02


6 Comments
  1. Boydm Lion
    Boydm Lion says

    มีภาคไทยไหมครับผม

    1. Admin
      Admin says

      ยังไม่มีฮ๊ะ

  2. Naruepon Singklin
    Naruepon Singklin says

    ขอลิ้งค์ VIP ด้วยครับ

    1. Admin
      Admin says

      แก้ไขเรียบร้อยฮ๊ะ

  3. Theera Seetasut
    Theera Seetasut says

    โหลดไม่ได้ครับ

    1. Admin
      Admin says

      แก้ไขเรียบร้อยฮ๊ะ

Leave A Reply

อีเมล์ของคุณจะไม่แสดงให้เห็น Your email address will not be published.

%d bloggers like this: