[MINI Super-HQ] Yellow Rose (2019) เยลโลว์ โรส เส้นทางสู่ฝัน [1080p] [พากย์ไทย 2.0 + เสียงอังกฤษ 5.1] [บรรยายไทย + อังกฤษ] [เสียงไทยมาสเตอร์ + ซับไทย] [PANDAFILE]

0

โหลดหนัง Yellow Rose (2019) เยลโลว์ โรส เส้นทางสู่ฝัน

Yellow Rose (2019) 94min | Drama, Music | 9 October 2020 (USA) Summary: A Filipina teen from a small Texas town fights to pursue her dreams as a country music performer while having to decide between staying with her family or leaving the only home she has known.
Countries: Philippines, USALanguages: English

เรื่องย่อ Yellow Rose (2019) เยลโลว์ โรส เส้นทางสู่ฝัน

วัยรุ่นชาวฟิลิปปินส์จากเมืองเล็ก ๆ ในเท็กซัสต่อสู้เพื่อไล่ตามความฝันของเธอในฐานะนักแสดงเพลงคันทรีในขณะที่ต้องตัดสินใจว่าจะอยู่กับครอบครัวหรือออกจากบ้านหลังเดียวที่เธอรู้จัก!!!

Complete name :[MINI Super-HQ]_Yellow.Rose.2019.1080p.WEB-DL.AC3.x264.THM.One2loadup.com.mkv
Format : Matroska
Format version : Version 4
File size : 3.66 GiB
Duration : 1 h 34 min
Overall bit rate : 5 551 kb/s
Movie name : MINI Super-HQ]_Yellow.Rose.2019.1080p.WEB-DL.AC3.x264.THM.One2loadup.com
Encoded date : UTC 2021-01-22 22:51:47
Writing application : mkvmerge v9.8.0 (‘Kuglblids’) 64bit
Writing library : libebml v1.3.4 + libmatroska v1.4.5

Video
ID : 1
Format : AVC
Format/Info : Advanced Video Codec
Format profile : [email protected]
Format settings : CABAC / 5 Ref Frames
Format settings, CABAC : Yes
Format settings, Reference : 5 frames
Codec ID : V_MPEG4/ISO/AVC
Duration : 1 h 34 min
Bit rate : 4 607 kb/s
Width : 1 920 pixels
Height : 790 pixels
Display aspect ratio : 2.40:1
Frame rate mode : Constant
Frame rate : 23.976 FPS
Color space : YUV
Chroma subsampling : 4:2:0
Bit depth : 8 bits
Scan type : Progressive
Bits/(Pixel*Frame) : 0.127
Stream size : 3.04 GiB (83%)
Title : MINI Super-HQ]_Yellow.Rose.2019.1080p.WEB-DL.AC3.x264.THM.One2loadup.com
Language : English
Default : Yes
Forced : No
Color range : Limited
Color primaries : BT.709
Transfer characteristics : BT.709
Matrix coefficients : BT.709

Audio #1
ID : 2
Format : AC-3
Format/Info : Audio Coding 3
Commercial name : Dolby Digital
Codec ID : A_AC3
Duration : 1 h 34 min
Bit rate mode : Constant
Bit rate : 384 kb/s
Channel(s) : 2 channels
Channel layout : L R
Sampling rate : 44.1 kHz
Frame rate : 28.711 FPS (1536 SPF)
Compression mode : Lossy
Delay relative to video : -42 ms
Stream size : 259 MiB (7%)
Title : Thai Master
Language : Thai
Service kind : Complete Main
Default : Yes
Forced : Yes

Audio #2
ID : 3
Format : AC-3
Format/Info : Audio Coding 3
Commercial name : Dolby Digital
Codec ID : A_AC3
Duration : 1 h 34 min
Bit rate mode : Constant
Bit rate : 384 kb/s
Channel(s) : 6 channels
Channel layout : L R C LFE Ls Rs
Sampling rate : 48.0 kHz
Frame rate : 31.250 FPS (1536 SPF)
Compression mode : Lossy
Delay relative to video : -42 ms
Stream size : 259 MiB (7%)
Title : English AC3 5.1
Language : English
Service kind : Complete Main
Default : No
Forced : No

Text #1
ID : 4
Format : VobSub
Codec ID : S_VOBSUB
Codec ID/Info : Picture based subtitle format used on DVDs
Duration : 1 h 33 min
Bit rate : 4 329 b/s
Count of elements : 998
Stream size : 2.91 MiB (0%)
Title : Thai 720p
Language : Thai
Default : No
Forced : No

Text #2
ID : 5
Format : VobSub
Codec ID : S_VOBSUB
Codec ID/Info : Picture based subtitle format used on DVDs
Duration : 1 h 33 min
Bit rate : 7 866 b/s
Count of elements : 998
Stream size : 5.29 MiB (0%)
Title : Thai 1080p
Language : Thai
Default : Yes
Forced : Yes

Text #3
ID : 6
Format : VobSub
Codec ID : S_VOBSUB
Codec ID/Info : Picture based subtitle format used on DVDs
Duration : 1 h 33 min
Bit rate : 7 851 b/s
Count of elements : 998
Stream size : 5.28 MiB (0%)
Title : Thai 1080p Yellow
Language : Thai
Default : No
Forced : No

Text #4
ID : 7
Format : VobSub
Codec ID : S_VOBSUB
Codec ID/Info : Picture based subtitle format used on DVDs
Duration : 1 h 33 min
Bit rate : 7 469 b/s
Count of elements : 998
Stream size : 5.02 MiB (0%)
Title : Thai 1080p Out
Language : Thai
Default : No
Forced : No

Text #5
ID : 8
Format : VobSub
Codec ID : S_VOBSUB
Codec ID/Info : Picture based subtitle format used on DVDs
Duration : 1 h 33 min
Bit rate : 10.8 kb/s
Count of elements : 998
Stream size : 7.27 MiB (0%)
Title : Thai 1080p BIG
Language : Thai
Default : No
Forced : No

Text #6
ID : 9
Format : VobSub
Codec ID : S_VOBSUB
Codec ID/Info : Picture based subtitle format used on DVDs
Duration : 1 h 33 min
Bit rate : 10.3 kb/s
Count of elements : 998
Stream size : 6.91 MiB (0%)
Title : Thai 1080p Out [BIG]
Language : Thai
Default : No
Forced : No

Text #7
ID : 10
Format : PGS
Codec ID : S_HDMV/PGS
Codec ID/Info : Picture based subtitle format used on BDs/HD-DVDs
Duration : 1 h 33 min
Bit rate : 33.3 kb/s
Count of elements : 1996
Stream size : 22.4 MiB (1%)
Title : Thai PGS
Language : Thai
Default : No
Forced : No

Text #8
ID : 11
Format : PGS
Codec ID : S_HDMV/PGS
Codec ID/Info : Picture based subtitle format used on BDs/HD-DVDs
Duration : 1 h 33 min
Bit rate : 33.4 kb/s
Count of elements : 1996
Stream size : 22.4 MiB (1%)
Title : Thai PGS Yellow
Language : Thai
Default : No
Forced : No

Text #9
ID : 12
Format : PGS
Codec ID : S_HDMV/PGS
Codec ID/Info : Picture based subtitle format used on BDs/HD-DVDs
Duration : 1 h 33 min
Bit rate : 31.5 kb/s
Count of elements : 1996
Stream size : 21.1 MiB (1%)
Title : Thai PGS Out
Language : Thai
Default : No
Forced : No

Text #10
ID : 13
Format : PGS
Codec ID : S_HDMV/PGS
Codec ID/Info : Picture based subtitle format used on BDs/HD-DVDs
Duration : 1 h 30 min
Bit rate : 28.8 kb/s
Count of elements : 1996
Stream size : 18.6 MiB (0%)
Title : English
Language : English
Default : No
Forced : No

Menu
00:00:00.000 : en:1
00:07:36.456 : en:2
00:10:36.969 : en:3
00:15:06.404 : en:4
00:20:44.825 : en:5
00:26:49.980 : en:6
00:32:10.799 : en:7
00:38:49.656 : en:8
00:43:16.630 : en:9
00:49:11.693 : en:10
00:55:50.841 : en:11
00:59:52.040 : en:12
01:04:03.123 : en:13
01:09:36.830 : en:14
01:15:40.818 : en:15
01:24:26.385 : en:16

DOWNLOAD


PART01 |||| PART02 |||| PART03 |||| PART04

PART01 |||| PART02 |||| PART03 |||| PART04

PART01 |||| PART02 |||| PART03 |||| PART04

PART01 |||| PART02 |||| PART03 |||| PART04

PART01 |||| PART02 |||| PART03 |||| PART04


Leave A Reply

Your email address will not be published.

%d bloggers like this: