[MINI Super-HQ] Witching & Bitching (2013) งานปาร์ตี้ ทิวาสีเลือด [1080p] [พากย์ไทย 5.1 + เสียงสเปน DTS] [บรรยายไทย + อังกฤษ] [เสียงไทย + ซับไทย] [PANDAFILE]

0

โหลดหนัง Witching & Bitching (2013) งานปาร์ตี้ ทิวาสีเลือด

Las brujas de Zugarramurdi (2013) 1h 52min | Action, Comedy, Fantasy | 27 September 2013 (Spain) Summary: A gang of armed robbers finds a safe haven in a secluded village crammed with witches--only to encounter the bizarre, the unexpected, and the occult. Can they save themselves, and the rest of the world from the next witch apocalypse?
Countries: Spain, FranceLanguages: Spanish

เรื่องย่อ Witching & Bitching (2013) งานปาร์ตี้ ทิวาสีเลือด

แก๊งค์โจรติดอาวุธปลอมตัวเป็นนักแสดงข้างถนน และพยายามที่จะหนีตำรวจบนถนนที่แออัดในกรุงมาดริดหลั งจากการปล้นของในโรงจำนำทองคำด้วยความช่วยเหลือที่ไม่เต็มใจของคนขับรถแท็กซี่ที่พาพวกเขาหนีออกจากของเขตแดน และในคืนนั้นเองพวกเขาก็ได้พบสถานที่ที่ปลอดภัยสำหรับการซ่อนตัวในหมู่บ้านของ Zugarramurdi ซึ่งเป็นที่รู้จักกันว่าเป็นที่สำหรับทำกิจกรรมบางอย่างของแม่มดเมื่อในครั้งอดีตที่ผ่านมาหลังจากการเผชิญหน้ากับหลายอย่างที่แปลกประหลาดและลึกลับจนคาดไม่ถึง อีกทั้งยังต้องเรียนรู้วิธีการของแม่มดเพื่อที่จะช่วยตัวเองและโลกจากคัมภีร์ของศาสนาคริสต์แม่มดต่อไป!!!

Complete name : [MINI Super-HQ]_Witching.And.Bitching.2013.1080p.BrRip.DTS.x264.One2loadup.com.mkv
Format : Matroska
Format version : Version 4 / Version 2
File size : 3.98 GiB
Duration : 1 h 54 min
Overall bit rate : 4 998 kb/s
Movie name : [MINI Super-HQ]_Witching.And.Bitching.2013.1080p.BrRip.DTS.x264.One2loadup.com
Encoded date : UTC 2010-02-22 21:41:31
Writing application : mkvmerge v5.9.0 (‘On The Loose’) built on Dec 9 2012 15:37:01
Writing library : libebml v1.3.0 + libmatroska v1.4.0

Video
ID : 1
Format : AVC
Format/Info : Advanced Video Codec
Format profile : [email protected]
Format settings, CABAC : Yes
Format settings, RefFrames : 4 frames
Codec ID : V_MPEG4/ISO/AVC
Duration : 1 h 54 min
Bit rate : 3 606 kb/s
Width : 1 920 pixels
Height : 812 pixels
Display aspect ratio : 2.35:1
Frame rate mode : Constant
Frame rate : 23.976 (24000/1001) FPS
Color space : YUV
Chroma subsampling : 4:2:0
Bit depth : 8 bits
Scan type : Progressive
Bits/(Pixel*Frame) : 0.096
Stream size : 2.94 GiB (74%)
Title : [MINI Super-HQ]_Witching.And.Bitching.2013.1080p.BrRip.DTS.x264.One2loadup.com
Writing library : x264 core 130 r2273 b3065e6
Encoding settings : cabac=1 / ref=3 / deblock=1:0:0 / analyse=0x3:0x113 / me=umh / subme=11 / psy=1 / psy_rd=1.00:0.00 / mixed_ref=1 / me_range=48 / chroma_me=1 / trellis=2 / 8x8dct=1 / cqm=0 / deadzone=21,11 / fast_pskip=1 / chroma_qp_offset=-2 / threads=10 / lookahead_threads=1 / sliced_threads=0 / nr=0 / decimate=1 / interlaced=0 / bluray_compat=0 / constrained_intra=0 / bframes=3 / b_pyramid=2 / b_adapt=1 / b_bias=0 / direct=1 / weightb=1 / open_gop=0 / weightp=2 / keyint=240 / keyint_min=24 / scenecut=40 / intra_refresh=0 / rc_lookahead=40 / rc=2pass / mbtree=1 / bitrate=3606 / ratetol=1.0 / qcomp=0.60 / qpmin=0 / qpmax=69 / qpstep=4 / cplxblur=20.0 / qblur=0.5 / ip_ratio=1.40 / aq=1:1.00
Language : Spanish
Default : Yes
Forced : No
Color range : Limited
Color primaries : BT.709
Transfer characteristics : BT.709
Matrix coefficients : BT.709

Audio #1
ID : 2
Format : AC-3
Format/Info : Audio Coding 3
Format settings, Endianness : Big
Codec ID : A_AC3
Duration : 1 h 54 min
Bit rate mode : Constant
Bit rate : 448 kb/s
Channel(s) : 6 channels
Channel positions : Front: L C R, Side: L R, LFE
Sampling rate : 48.0 kHz
Frame rate : 31.250 FPS (1536 SPF)
Bit depth : 16 bits
Compression mode : Lossy
Stream size : 366 MiB (9%)
Title : Thai DVD Master
Language : Thai
Service kind : Complete Main
Default : Yes
Forced : Yes

Audio #2
ID : 3
Format : DTS
Format/Info : Digital Theater Systems
Mode : 16
Format settings, Endianness : Big
Codec ID : A_DTS
Duration : 1 h 54 min
Bit rate mode : Constant
Bit rate : 755 kb/s
Channel(s) : 6 channels
Channel positions : Front: L C R, Side: L R, LFE
Sampling rate : 48.0 kHz
Frame rate : 93.750 FPS (512 SPF)
Bit depth : 24 bits
Compression mode : Lossy
Stream size : 616 MiB (15%)
Title : Spanish DTS
Language : Spanish
Default : No
Forced : No

Text #1
ID : 4
Format : VobSub
Codec ID : S_VOBSUB
Codec ID/Info : Picture based subtitle format used on DVDs
Title : Thai 480p From DVD Master
Language : Thai
Default : No
Forced : No

Text #2
ID : 5
Format : VobSub
Codec ID : S_VOBSUB
Codec ID/Info : Picture based subtitle format used on DVDs
Title : Thai 720p
Language : Thai
Default : No
Forced : No

Text #3
ID : 6
Format : VobSub
Codec ID : S_VOBSUB
Codec ID/Info : Picture based subtitle format used on DVDs
Title : Thai 1080p
Language : Thai
Default : Yes
Forced : Yes

Text #4
ID : 7
Format : VobSub
Codec ID : S_VOBSUB
Codec ID/Info : Picture based subtitle format used on DVDs
Title : Thai 1080p Yellow
Language : Thai
Default : No
Forced : No

Text #5
ID : 8
Format : VobSub
Codec ID : S_VOBSUB
Codec ID/Info : Picture based subtitle format used on DVDs
Title : Thai 1080p Out
Language : Thai
Default : No
Forced : No

Text #6
ID : 9
Format : VobSub
Codec ID : S_VOBSUB
Codec ID/Info : Picture based subtitle format used on DVDs
Title : Thai 1080p BIG
Language : Thai
Default : No
Forced : No

Text #7
ID : 10
Format : VobSub
Codec ID : S_VOBSUB
Codec ID/Info : Picture based subtitle format used on DVDs
Title : Thai 1080p Out [BIG]
Language : Thai
Default : No
Forced : No

Text #8
ID : 11
Format : PGS
Codec ID : S_HDMV/PGS
Codec ID/Info : Picture based subtitle format used on BDs/HD-DVDs
Title : Thai PGS
Language : Thai
Default : No
Forced : No

Text #9
ID : 12
Format : PGS
Codec ID : S_HDMV/PGS
Codec ID/Info : Picture based subtitle format used on BDs/HD-DVDs
Title : Thai PGS Yellow
Language : Thai
Default : No
Forced : No

Text #10
ID : 13
Format : PGS
Codec ID : S_HDMV/PGS
Codec ID/Info : Picture based subtitle format used on BDs/HD-DVDs
Title : Thai PGS Out
Language : Thai
Default : No
Forced : No

Text #11
ID : 14
Format : VobSub
Codec ID : S_VOBSUB
Codec ID/Info : Picture based subtitle format used on DVDs
Title : English
Language : English
Default : No
Forced : No

Menu
00:00:00.000 : en:Chapter 1
00:05:18.401 : en:Chapter 2
00:14:16.064 : en:Chapter 3
00:18:47.960 : en:Chapter 4
00:23:34.872 : en:Chapter 5
00:30:42.007 : en:Chapter 6
00:34:54.134 : en:Chapter 7
00:42:24.792 : en:Chapter 8
00:49:37.308 : en:Chapter 9
00:55:15.312 : en:Chapter 10
00:59:06.501 : en:Chapter 11
01:06:33.239 : en:Chapter 12
01:09:32.293 : en:Chapter 13
01:14:56.534 : en:Chapter 14
01:20:45.257 : en:Chapter 15
01:25:12.733 : en:Chapter 16
01:31:20.809 : en:Chapter 17
01:35:17.712 : en:Chapter 18
01:46:46.734 : en:Chapter 19
01:49:21.055 : en:Chapter 20

 

DOWNLOAD


PART01 |||| PART02 |||| PART03 |||| PART04

PART01 |||| PART02 |||| PART03 |||| PART04

PART01 |||| PART02 |||| PART03 |||| PART04

PART01 |||| PART02 |||| PART03 |||| PART04

PART01 |||| PART02 |||| PART03 |||| PART04


Leave A Reply

Your email address will not be published.

%d bloggers like this: