[MINI Super-HQ] What Happened to Mr Cha (2021) ชาอินพโย สุภาพบุรุษสุดขั้ว [1080p] [NETFLIX] [พากย์ไทย 5.1 + เสียงเกาหลี 5.1] [บรรยายไทย + อังกฤษ] [เสียงไทย + ซับไทย] [USERLOAD]

0

โหลดหนัง What Happened to Mr Cha (2021) ชาอินพโย สุภาพบุรุษสุดขั้ว

What Happened to Mr Cha? (2021) 102min | Comedy, Drama | January 1, 2021 (United States) Summary: Cha In-Pyo was once a popular actor, but he is not anymore. He struggles to regain his popularity.
Countries: South KoreaLanguages: Korean

เรื่องย่อ What Happened to Mr Cha (2021) ชาอินพโย สุภาพบุรุษสุดขั้ว

เรื่องราวของมิสเตอร์ชา (รับบทโดย ชาอินพโย จาก The Gentlemen of Wolgyesu Tailor Shop) อดีตเซเลปหนุ่มสุดปังของวงการในยุค 90 หลังจากเวลาล่วงเลยผ่านไปถึง 30 ปี เนื่องจากภาพลักษณ์ในวงการบันเทิงของเขาที่เป็นคนดูภูมิฐานอ่อนโยน และเพอร์เฟ็กต์มันทำให้เขาถูกจัดอันดับให้ยืนหนึ่งในวงการบันเทิงในฐานะดาราเกาหลีรุ่นใหญ่ผู้เพียบพร้อมไปทุกอย่างอยู่มาวันนึง มิสเตอร์ชาออกไปอาบน้ำที่โรงยิมแห่งนึงเพราะความซวยหรืออะไรก็ไม่รู้จู่ๆโรงยิมแห่งนี้ก็พังครืนลงมาต่อหน้าต่อตาทำให้เขาต้องติดอยู่ในซากตึกพร้อมกับการรอคอยความช่วยเหลืออย่างสิ้นหวังทันใดนั้นเองมิสเตอร์ชานึกขึ้นได้ว่าจะต้องไม่ให้ใครเห็นเขาในสภาพนี้อย่างเด็ดขาด เพราะการขึ้นหน้าหนึ่งหนังสือพิมพ์ในสภาพนี้จะต้องเป็นฝันร้ายตลอดกาลของเขาอย่างแน่นอน

Complete name : [MINI Super-HQ]_What.Happened.to.Mr.Cha.2021.1080p.NF.WEB-DL.EAC3.x264.One2loadup.com.mkv
Format : Matroska
Format version : Version 4
File size : 4.68 GiB
Duration : 1 h 42 min
Overall bit rate : 6 511 kb/s
Movie name : [MINI Super-HQ]_What.Happened.to.Mr.Cha.2021.1080p.NF.WEB-DL.EAC3.x264.One2loadup.com
Encoded date : UTC 2021-09-09 13:15:08
Writing application : mkvmerge v61.0.0 (‘So’) 64-bit
Writing library : libebml v1.4.2 + libmatroska v1.6.4

Video
ID : 1
Format : AVC
Format/Info : Advanced Video Codec
Format profile : [email protected]
Format settings : 1 Ref Frames
Format settings, CABAC : No
Format settings, Reference : 1 frame
Codec ID : V_MPEG4/ISO/AVC
Duration : 1 h 42 min
Bit rate : 5 175 kb/s
Width : 1 920 pixels
Height : 1 080 pixels
Display aspect ratio : 16:9
Frame rate mode : Constant
Frame rate : 23.976 (24000/1001) FPS
Color space : YUV
Chroma subsampling : 4:2:0
Bit depth : 8 bits
Scan type : Progressive
Bits/(Pixel*Frame) : 0.104
Stream size : 3.72 GiB (79%)
Title : [MINI Super-HQ]_What.Happened.to.Mr.Cha.2021.1080p.NF.WEB-DL.EAC3.x264.One2loadup.com
Default : Yes
Forced : No

Audio #1
ID : 2
Format : E-AC-3
Format/Info : Enhanced AC-3
Commercial name : Dolby Digital Plus
Codec ID : A_EAC3
Duration : 1 h 42 min
Bit rate mode : Constant
Bit rate : 640 kb/s
Channel(s) : 6 channels
Channel layout : L R C LFE Ls Rs
Sampling rate : 48.0 kHz
Frame rate : 31.250 FPS (1536 SPF)
Compression mode : Lossy
Stream size : 471 MiB (10%)
Title : Thai-DDP 5.1
Language : Thai
Service kind : Complete Main
Default : Yes
Forced : Yes

Audio #2
ID : 3
Format : E-AC-3
Format/Info : Enhanced AC-3
Commercial name : Dolby Digital Plus
Codec ID : A_EAC3
Duration : 1 h 42 min
Bit rate mode : Constant
Bit rate : 640 kb/s
Channel(s) : 6 channels
Channel layout : L R C LFE Ls Rs
Sampling rate : 48.0 kHz
Frame rate : 31.250 FPS (1536 SPF)
Compression mode : Lossy
Stream size : 471 MiB (10%)
Title : Korean-DDP 5.1
Language : Korean
Service kind : Complete Main
Default : Yes
Forced : No

Text #1
ID : 4
Format : PGS
Muxing mode : zlib
Codec ID : S_HDMV/PGS
Codec ID/Info : Picture based subtitle format used on BDs/HD-DVDs
Duration : 1 h 38 min
Bit rate : 933 b/s
Count of elements : 46
Stream size : 677 KiB (0%)
Title : Thai-FORCED PGS From Original NETFLIX
Language : Thai
Default : Yes
Forced : Yes

Text #2
ID : 5
Format : PGS
Muxing mode : zlib
Codec ID : S_HDMV/PGS
Codec ID/Info : Picture based subtitle format used on BDs/HD-DVDs
Duration : 1 h 38 min
Bit rate : 70.1 kb/s
Count of elements : 4004
Stream size : 49.7 MiB (1%)
Title : Thai-PGS From Original NETFLIX
Language : Thai
Default : Yes
Forced : No

Text #3
ID : 6
Format : VobSub
Muxing mode : zlib
Codec ID : S_VOBSUB
Codec ID/Info : Picture based subtitle format used on DVDs
Duration : 1 h 38 min
Bit rate : 13.7 kb/s
Count of elements : 2002
Stream size : 9.70 MiB (0%)
Title : Thai-VOBSUB From Original NETFLIX
Language : Thai
Default : Yes
Forced : No

Text #4
ID : 7
Format : UTF-8
Codec ID : S_TEXT/UTF8
Codec ID/Info : UTF-8 Plain Text
Duration : 1 h 41 min
Bit rate : 56 b/s
Count of elements : 1491
Stream size : 41.9 KiB (0%)
Title : English-SRT
Language : English
Default : Yes
Forced : No

DOWNLOAD


PART01 |||| PART02 |||| PART03 |||| PART04 |||| PART05

PART01 |||| PART02 |||| PART03 |||| PART04 |||| PART05

PART01 |||| PART02 |||| PART03 |||| PART04 |||| PART05

PART01 |||| PART02 |||| PART03 |||| PART04 |||| PART05

PART01 |||| PART02 |||| PART03 |||| PART04 |||| PART05


Leave A Reply

อีเมล์ของคุณจะไม่แสดงให้เห็น Your email address will not be published.

%d bloggers like this: