[MINI Super-HQ] Vinterviken (2021) วินเทอร์ไวเคน [1080p] [NETFLIX] [พากย์สวีดิช 5.1 + เสียงอังกฤษ 5.1] [Soundtrack บรรยายไทย + อังกฤษ] [เสียงสวีดิช + ซับไทย] [USERLOAD]

0

โหลดหนัง Vinterviken (2021) วินเทอร์ไวเคน

JJ+E 90min | Drama, Romance | September 8, 2021 (United States) Summary: Two youngsters are raised in the same city, yet they live light years apart, separated economically, socially and culturally. That is until the day they start in the same high school class.
Countries: SwedenLanguages: Swedish

เรื่องย่อ (JJ+E) Vinterviken (2021) วินเทอร์ไวเคน

อลิซาเบธกับยอห์น ยอห์นอยู่เมืองเดียวกันแต่มีชีวิตคนละโลก แล้วรักแรกที่หวานล้ำเกินห้ามใจจะนำพาทั้งคู่ข้ามผ่านกำแพงแห่งฐานะและภูมิหลังที่ต่างกันเกินไปได้หรือไม่

Complete name : [MINI Super-HQ]_Vinterviken.2021.1080p.NF.WEB-DL.EAC3.x264.Subthai.One2loadup.com.mkv
Format : Matroska
Format version : Version 4
File size : 4.24 GiB
Duration : 1 h 31 min
Overall bit rate : 6 666 kb/s
Movie name : [MINI Super-HQ]_Vinterviken.2021.1080p.NF.WEB-DL.EAC3.x264.Subthai.One2loadup.com
Encoded date : UTC 2021-09-08 13:10:29
Writing application : mkvmerge v61.0.0 (‘So’) 64-bit
Writing library : libebml v1.4.2 + libmatroska v1.6.4

Video
ID : 1
Format : AVC
Format/Info : Advanced Video Codec
Format profile : [email protected]
Format settings : CABAC / 3 Ref Frames
Format settings, CABAC : Yes
Format settings, Reference : 3 frames
Codec ID : V_MPEG4/ISO/AVC
Duration : 1 h 31 min
Bit rate : 5 334 kb/s
Width : 1 920 pixels
Height : 804 pixels
Display aspect ratio : 2.40:1
Frame rate mode : Constant
Frame rate : 25.000 FPS
Color space : YUV
Chroma subsampling : 4:2:0
Bit depth : 8 bits
Scan type : Progressive
Bits/(Pixel*Frame) : 0.138
Stream size : 3.39 GiB (80%)
Title : [MINI Super-HQ]_Vinterviken.2021.1080p.NF.WEB-DL.EAC3.x264.Subthai.One2loadup.com
Language : Swedish
Default : Yes
Forced : No

Audio #1
ID : 2
Format : E-AC-3
Format/Info : Enhanced AC-3
Commercial name : Dolby Digital Plus
Codec ID : A_EAC3
Duration : 1 h 31 min
Bit rate mode : Constant
Bit rate : 640 kb/s
Channel(s) : 6 channels
Channel layout : L R C LFE Ls Rs
Sampling rate : 48.0 kHz
Frame rate : 31.250 FPS (1536 SPF)
Compression mode : Lossy
Stream size : 417 MiB (10%)
Title : E-AC3 Swedish
Language : Swedish
Service kind : Complete Main
Default : Yes
Forced : No

Audio #2
ID : 3
Format : E-AC-3
Format/Info : Enhanced AC-3
Commercial name : Dolby Digital Plus
Codec ID : A_EAC3
Duration : 1 h 31 min
Bit rate mode : Constant
Bit rate : 640 kb/s
Channel(s) : 6 channels
Channel layout : L R C LFE Ls Rs
Sampling rate : 48.0 kHz
Frame rate : 31.250 FPS (1536 SPF)
Compression mode : Lossy
Stream size : 417 MiB (10%)
Title : E-AC3 English
Language : English
Service kind : Complete Main
Default : No
Forced : No

Text #1
ID : 4
Format : VobSub
Muxing mode : zlib
Codec ID : S_VOBSUB
Codec ID/Info : Picture based subtitle format used on DVDs
Duration : 1 h 26 min
Bit rate : 10.0 kb/s
Count of elements : 929
Stream size : 6.19 MiB (0%)
Title : Sub Thai 1080p
Language : Thai
Default : No
Forced : No

Text #2
ID : 5
Format : UTF-8
Codec ID : S_TEXT/UTF8
Codec ID/Info : UTF-8 Plain Text
Duration : 1 h 26 min
Bit rate : 103 b/s
Count of elements : 929
Stream size : 65.5 KiB (0%)
Title : Sub Thai SRT
Language : Thai
Default : No
Forced : No

Text #3
ID : 6
Format : PGS
Muxing mode : zlib
Codec ID : S_HDMV/PGS
Codec ID/Info : Picture based subtitle format used on BDs/HD-DVDs
Duration : 1 h 26 min
Bit rate : 27.9 kb/s
Count of elements : 1858
Stream size : 17.3 MiB (0%)
Title : Sub Thai PGS
Language : Thai
Default : No
Forced : No

Text #4
ID : 7
Format : PGS
Muxing mode : zlib
Codec ID : S_HDMV/PGS
Codec ID/Info : Picture based subtitle format used on BDs/HD-DVDs
Duration : 1 h 26 min
Bit rate : 48.7 kb/s
Count of elements : 1858
Stream size : 30.1 MiB (1%)
Title : Sub Thai PGS NETFLIX
Language : Thai
Default : Yes
Forced : No

Text #5
ID : 8
Format : UTF-8
Codec ID : S_TEXT/UTF8
Codec ID/Info : UTF-8 Plain Text
Duration : 1 h 25 min
Bit rate : 55 b/s
Count of elements : 1070
Stream size : 34.7 KiB (0%)
Title : Sub English SRT
Language : English
Default : No
Forced : No

DOWNLOAD


PART01 |||| PART02 |||| PART03 |||| PART04 |||| PART05

PART01 |||| PART02 |||| PART03 |||| PART04 |||| PART05

PART01 |||| PART02 |||| PART03 |||| PART04 |||| PART05

PART01 |||| PART02 |||| PART03 |||| PART04 |||| PART05

PART01 |||| PART02 |||| PART03 |||| PART04 |||| PART05


Leave A Reply

อีเมล์ของคุณจะไม่แสดงให้เห็น Your email address will not be published.

%d bloggers like this: